Ethaaet Hob 2011 Arabic Dvd Remux - alrmothe

Size 3.333 GB   31 seeders     Added 2013-05-01 23:50:25

Stream torrent
Starting‥ You need BitLord! Get it from 1BitLord.com
To download or stream you need BitLord. Visit them at BitLord.com
.
Movies : Drama: DVD :Arabic
Ethaaet Hob 2011 Arabic Dvd Remux - alrmothe
elcinema:
http://www.elcinema.com/work/wk1537236/
Genre:Comedy
Source:DVD Disc
Language:Arabic
File size:3.10 GiB
Overall bit rate:4573 Kbps
Duration:1h 37mn 105s 
Remux By:alrmothe
Remux
http://en.wikipedia.org/wiki/Remux
Remux
استخراج الفيديو والصوت من دون ضغط أو تحويل والفائدة من هذه العملية الحفاظ على جودة الفيديو والصوت الأصليين
cast
Menna Shalaby ... Laila
Sherif Salama ... Hassan
Yusra AL-Lozi ... Fredah
بطولة
Video Information
Format : Matroska
Format : MPEG Video
Format version : Version 2
Format profile : Main@Main
Format settings, BVOP : No
Format settings, Matrix : Custom
Codec ID : V_MPEG2
Codec ID/Info : MPEG 1 or 2 Video
Bit rate : 4290 Kbps
Maximum bit rate : 6000 Kbps
Display aspect ratio : 4:3
Frame rate mode : Constant
Frame rate : 25.000 fps
Standard : PAL
Color space : YUV
Chroma subsampling : 4:2:0
Bit depth : 8 bits
Compression mode : Lossy
Bits/(Pixel*Frame) : 0.414
Stream size : 2.91 GiB (94%)
Resolution:720x576
Audio Information:
Format : AC-3
Bit rate mode : Constant
Bit rate : 192 Kbps
Channel(s) : 2 channels
Channel positions : Front: L R
Sampling rate : 48.0 KHz
Bit depth : 16 bits
Compression mode : Lossy
Stream size : 133 MiB (4%)
Language:Arabic
SUB:Arabic,English,French
The same subtitle format used on DVDs
DVD المصدر قرص
Screenshots
Code:

http://fr33dom.h33t.com:3310/announce
http://121.14.98.151:9090/announce
http://tracker.ex.ua/announce
http://p2pdl.com:2710/announce
http://exodus.desync.com:6969/announce
http://94.228.192.98/announce
http://tracker.coppersurfer.tk:6969/announce
udp://tracker.istole.it:80/announce
udp://fr33dom.h33t.com:3310/announce
http://announce.torrentsmd.com:8080/announce
http://announce.opensharing.org:2710/announce
Trailer
http://www.youtube.com/watch?v=NZTzJMxw99c
Ethaaet Hob 2011 Arabic Dvd Remux - alrmothe/Ethaaet Hob 2011 Arabic Dvd Remux - alrmothe.mkv 3.332 GB
Ethaaet Hob 2011 Arabic Dvd Remux - alrmothe/cover.jpg 528.436 KB
Ethaaet Hob 2011 Arabic Dvd Remux - alrmothe/info.nfo 1.598 KB
Gathering some info...

Register and log in Isohunt and see no captcha anymore!

4000 symbols left
Hash 19ef3e366aa303f152d738b73626b823747dab19