Maroon 5 - Daylight [Music Video] 1080p [Sbyky].mp4

Size 328.401 MB   0 seeders     Added 2013-05-02 02:51:35

Stream torrent
Starting‥ You need BitLord! Get it from BitLord.com
To download or stream you need BitLord. Visit them at BitLord.com
General
Complete name : Maroon 5 - Daylight [Music Video] 1080p [Sbyky].mp4
Format : MPEG-4
Format profile : Base Media / Version 2
Codec ID : mp42
File size : 313 MiB
Duration : 9mn 34s
Overall bit rate mode : Variable
Overall bit rate : 4 571 Kbps
Encoded date : UTC 2013-04-08 06:51:19
Tagged date : UTC 2013-04-08 06:51:19
Video
ID : 1
Format : AVC
Format/Info : Advanced Video Codec
Format profile : [email protected]
/*  */

Format settings, CABAC : Yes
Format settings, ReFrames : 1 frame
Codec ID : avc1
Codec ID/Info : Advanced Video Coding
Duration : 9mn 34s
Bit rate : 4 376 Kbps
Maximum bit rate : 57.7 Mbps
Width : 1 920 pixels
Height : 1 080 pixels
Display aspect ratio : 16:9
Frame rate mode : Constant
Frame rate : 29.970 fps
Color space : YUV
Chroma subsampling : 4:2:0
Bit depth : 8 bits
Scan type : Progressive
Bits/(Pixel*Frame) : 0.070
Stream size : 300 MiB (96%)
Tagged date : UTC 2013-04-08 06:52:15
Audio
ID : 2
Format : AAC
Format/Info : Advanced Audio Codec
Format profile : LC
Codec ID : 40
Duration : 9mn 34s
Bit rate mode : Variable
Bit rate : 192 Kbps
Maximum bit rate : 202 Kbps
Channel(s) : 2 channels
Channel positions : Front: L R
Sampling rate : 44.1 KHz
Compression mode : Lossy
Stream size : 13.2 MiB (4%)
Title : IsoMedia File Produced by Google, 5-11-2011
Encoded date : UTC 2013-04-08 06:51:57
Tagged date : UTC 2013-04-08 06:52:15
Shared By Sbyky
Maroon 5 - Daylight [Music Video] 1080p [Sbyky].mp4 328.401 MB
Gathering some info...

Register and log in Isohunt and see no captcha anymore!

4000 symbols left
Hash 5bd143b168b21e36a0124737fbf1a9a4b0fadb0b

Related torrents for "Maroon 5 - Daylight [Music Video] 1080p [Sbyky].mp4"