Maroon 5 - Daylight [Music Video] 720p [Sbyky].mp4

Size 164.913 MB   0 seeders     Added 2013-05-02 02:51:35

Stream torrent
Starting‥ You need BitLord! Get it from 1BitLord.com
To download or stream you need BitLord. Visit them at BitLord.com
General
Complete name : Maroon 5 - Daylight [Music Video] 720p [Sbyky].mp4
Format : MPEG-4
Format profile : Base Media / Version 2
Codec ID : mp42
File size : 157 MiB
Duration : 9mn 34s
Overall bit rate mode : Variable
Overall bit rate : 2 295 Kbps
Encoded date : UTC 2013-04-08 06:50:49
Tagged date : UTC 2013-04-08 06:50:49
Video
ID : 1
Format : AVC
Format/Info : Advanced Video Codec
Format profile : [email protected]
/*  */

Format settings, CABAC : Yes
Format settings, ReFrames : 1 frame
Codec ID : avc1
Codec ID/Info : Advanced Video Coding
Duration : 9mn 34s
Bit rate : 2 101 Kbps
Maximum bit rate : 25.7 Mbps
Width : 1 280 pixels
Height : 720 pixels
Display aspect ratio : 16:9
Frame rate mode : Constant
Frame rate : 29.970 fps
Color space : YUV
Chroma subsampling : 4:2:0
Bit depth : 8 bits
Scan type : Progressive
Bits/(Pixel*Frame) : 0.076
Stream size : 144 MiB (92%)
Tagged date : UTC 2013-04-08 06:51:10
Audio
ID : 2
Format : AAC
Format/Info : Advanced Audio Codec
Format profile : LC
Codec ID : 40
Duration : 9mn 34s
Bit rate mode : Variable
Bit rate : 192 Kbps
Maximum bit rate : 202 Kbps
Channel(s) : 2 channels
Channel positions : Front: L R
Sampling rate : 44.1 KHz
Compression mode : Lossy
Stream size : 13.2 MiB (8%)
Title : IsoMedia File Produced by Google, 5-11-2011
Encoded date : UTC 2013-04-08 06:51:02
Tagged date : UTC 2013-04-08 06:51:10
Shared By Sbyky
Maroon 5 - Daylight [Music Video] 720p [Sbyky].mp4 164.913 MB
Gathering some info...

Register and log in Isohunt and see no captcha anymore!

4000 symbols left
Hash 4a39f2c085aee26e54bb1108fe41de6546ef09ba

Related torrents for "Maroon 5 - Daylight [Music Video] 720p [Sbyky].mp4"