Jaws (1975) 1080p AC3 M2TS

Size 4.286 GB   0 seeders     Added 2013-05-02 04:40:53

Stream torrent
Starting‥ You need BitLord! Get it from 1BitLord.com
To download or stream you need BitLord. Visit them at BitLord.com
<br />
<br />
<br />
When a gigantic great white shark begins to menace the small island community of Amity, a police chief, a marine scientist and grizzled fisherman set out to stop it.<br />
<br />
<br />
http://www.imdb.com/title/tt0073195/?ref_=sr_1<br />
<br />
<br />
General<br />
ID                                       : 1 (0x1)<br />
Complete name                            : C:\Users\piphead\Documents\Torrents To Upload\Jaws (1975) 1080p AC3 M2TS\Jaws (1975) 1080p AC3 M2TS.m2ts<br />
Format                                   : BDAV<br />
Format/Info                              : Blu-ray Video<br />
File size                                : 3.99 GiB<br />
Duration                                 : 2h 3mn<br />
Overall bit rate mode                    : Variable<br />
Overall bit rate                         : 4 612 Kbps<br />
Maximum Overall bit rate                 : 35.5 Mbps<br />
<br />
Video<br />
ID                                       : 4113 (0x1011)<br />
Menu ID                                  : 1 (0x1)<br />
Format                                   : AVC<br />
Format/Info                              : Advanced Video Codec<br />
Format profile                           : High@L4.1<br />
Format settings, CABAC                   : Yes<br />
Format settings, ReFrames                : 3 frames<br />
Codec ID                                 : 27<br />
Duration                                 : 2h 3mn<br />
Bit rate mode                            : Variable<br />
Bit rate                                 : 3 678 Kbps<br />
Maximum bit rate                         : 24.0 Mbps<br />
Width                                    : 1 920 pixels<br />
Height                                   : 1 080 pixels<br />
Display aspect ratio                     : 16:9<br />
Frame rate                               : 23.976 fps<br />
Color space                              : YUV<br />
Chroma subsampling                       : 4:2:0<br />
Bit depth                                : 8 bits<br />
Scan type                                : Progressive<br />
Bits/(Pixel*Frame)                       : 0.074<br />
Stream size                              : 3.27 GiB (82%)<br />
Writing library                          : x264 core 120 r2120 0c7dab9<br />
Encoding settings                        : cabac=1 / ref=3 / deblock=1:0:0 / analyse=0x3:0x113 / me=umh / subme=7 / psy=1 / psy_rd=1.00:0.25 / mixed_ref=1 / me_range=16 / chroma_me=1 / trellis=1 / 8x8dct=1 / cqm=0 / deadzone=21,11 / fast_pskip=1 / chroma_qp_offset=-4 / threads=6 / sliced_threads=0 / slices=4 / nr=0 / decimate=1 / interlaced=0 / bluray_compat=1 / constrained_intra=0 / bframes=3 / b_pyramid=1 / b_adapt=1 / b_bias=0 / direct=3 / weightb=1 / open_gop=1 / weightp=0 / keyint=24 / keyint_min=2 / scenecut=40 / intra_refresh=0 / rc_lookahead=24 / rc=2pass / mbtree=1 / bitrate=3678 / ratetol=1.0 / qcomp=0.60 / qpmin=0 / qpmax=69 / qpstep=4 / cplxblur=20.0 / qblur=0.5 / vbv_maxrate=24000 / vbv_bufsize=24000 / nal_hrd=vbr / ip_ratio=1.40 / aq=1:1.00<br />
<br />
Audio<br />
ID                                       : 4352 (0x1100)<br />
Menu ID                                  : 1 (0x1)<br />
Format                                   : AC-3<br />
Format/Info                              : Audio Coding 3<br />
Mode extension                           : CM (complete main)<br />
Format settings, Endianness              : Big<br />
Codec ID                                 : 129<br />
Duration                                 : 2h 3mn<br />
Bit rate mode                            : Constant<br />
Bit rate                                 : 640 Kbps<br />
Channel(s)                               : 6 channels<br />
Channel positions                        : Front: L C R, Side: L R, LFE<br />
Sampling rate                            : 48.0 KHz<br />
Bit depth                                : 16 bits<br />
Compression mode                         : Lossy<br />
Stream size                              : 567 MiB (14%)<br />
Language                                 : English
Jaws (1975) 1080p AC3 M2TS/Jaws (1975) 1080p AC3 M2TS.m2ts 4.286 GB
Jaws (1975) 1080p AC3 M2TS/Torrent Downloaded From ExtraTorrent.com(6).txt 353 B
Gathering some info...

Register and log in Isohunt and see no captcha anymore!

4000 symbols left
Hash 22d7eaa15cc03dff5453f59c32770701d32bc333