Yeh Dil Maange More - Hindi Play 2012 [TMB]

Size 686.75 MB   0 seeders     Added 2013-05-02 09:01:51

Stream torrent
Starting‥ You need BitLord! Get it from 1BitLord.com
To download or stream you need BitLord. Visit them at BitLord.com
 image 
image 
image 
image 
image 
image
 
image

Yeh Dil Maange More a famous hindi comedy stage play, originally written by Kedar Shinde in Marathi, adapted and directed by Paritosh Painter and Presented by Kaustub Trivedi and Swapna Pradhan. Starring Tanaaz currim, Paritosh Painter, Kamya Punjabi, Ninad Kamat, Imran Khan and Kashyab Sampura. Produced by Vikram Pradhan.
This is a hilarious play about the story of a couple whose marriage is on the rocks and by sudden change of fate they have new neighbours who happen to be old time time friends. Both husband and wife get attracted to their neighbours spouses and this makes for a lot of funny twists in the situation. Watch this play to laugh out all your woes and find out what happens to the two couples and their marriages.

Media Info - 
Video
ID                             : 0
Format                         : AVC
Format/Info                    : Advanced Video Codec
Format profile                 : Main@L3.0
Format settings, CABAC         : Yes
Format settings, ReFrames      : 2 frames
Codec ID                       : H264
Duration                       : 2h 13mn
Bit rate                       : 411 Kbps
Width                          : 656 pixels
Height                         : 480 pixels
Display aspect ratio           : 4:3
Frame rate mode                : Variable
Frame rate                     : 25.000 fps
Color space                    : YUV
Chroma subsampling             : 4:2:0
Bit depth                      : 8 bits
Scan type                      : Progressive
Bits/(Pixel*Frame)             : 0.052
Stream size                    : 390 MiB (60%)
Writing library                : x264 core 112 r1834 a51816a

Audio
ID                             : 1
Format                         : MPEG Audio
Format version                 : Version 1
Format profile                 : Layer 3
Mode                           : Joint stereo
Mode extension                 : MS Stereo
Codec ID                       : 55
Codec ID/Hint                  : MP3
Duration                       : 2h 13mn
Bit rate mode                  : Constant
Bit rate                       : 256 Kbps
Channel(s)                     : 2 channels
Sampling rate                  : 44.1 KHz
Compression mode               : Lossy
Stream size                    : 245 MiB (38%)
Alignment                      : Aligned on interleaves
Interleave, duration           : 26 ms (0.65 video frame)
Writing library                : LAME3.98.4

Ripper : Saket

Seeding 24x7... Extreme Seeding...

Sample in Torrent... ;)
 
image		
Yeh Dil Maange More - Hindi Play 2012 [TMB]/Yeh Dil Maange More - Hindi Play 2012 [TMB].avi 678.343 MB
Yeh Dil Maange More - Hindi Play 2012 [TMB]/Yeh Dil Maange More - Hindi Play 2012 Sample.avi 8.408 MB
Gathering some info...

Register and log in Isohunt and see no captcha anymore!

4000 symbols left
Hash 5a2795177e5b34475280e3eab70f9158357f9b7c