imdb
rating

7.0
The Tower

The Tower (2012)

Drama

Full description
quality   h264 fullhd bd dvdrip screener

The Tower 2012 BRRip 720p x264 Korean ESubs - PRiSTiNE [P2PDL] Verified

Size 739.992 MB   9 seeders     Added 2013-05-02 09:20:51

Stream torrent
Starting‥ You need BitLord! Get it from BitLord.com
To download or stream you need BitLord. Visit them at BitLord.com
[center][img]image[/img]

[b]The Tower 2012 BRRip 720p x264 Korean ESubs - PRiSTiNE[/b]
[quote]
Genre: Action | Drama
Plot: A Christmas Eve party at a luxury residential building 
takes a horrific turn when a fire breaks out.
Director: Ji-hoon Kim
Stars: Mina Cho, Sang-kyung Kim, Sul Kyung-gu
Rated: Not Rated[/quote]

[b]Info:[/b]
[url]http://www.imdb.com/title/tt2554270/[/url]

[b]Trailer:[/b]
[url]http://www.youtube.com/watch?v=6R6sABVwt3g[/url]
[quote]
General
Complete name : The Tower 2012 BRRip 720p x264 Korean ESubs - PRiSTiNE.mp4
Format : MPEG-4
File size : 698 MiB
Duration : 2h 1mn
Overall bit rate mode : Variable
Overall bit rate : 800 Kbps

Video
Format : AVC
Format/Info : Advanced Video Codec
Format profile : High 10@L4.1
Bit rate : 719 Kbps
Width : 1 280 pixels
Height : 542 pixels
Display aspect ratio : 2.35:1
Frame rate mode : Constant
Frame rate : 23.976 fps
Bit depth : 10 bits
Stream size : 626 MiB (90%)
Writing library : x264 core 130 r2273 b3065e6

Audio
Format : AAC
Bit rate mode : Variable
Bit rate : 80.0 Kbps
Channel(s) : 2 channels
Channel positions : Front: L R
Sampling rate : 48.0 KHz / 24.0 KHz
Stream size : 69.8 MiB (10%)
Language : Korean

Subtitle : Yes (English)
Source : 720p.BluRay.DTS.x264-EbP (Thanks)[/quote]

[b]Screenshots:[/b]

[img]image[/img]
[img]image[/img]
[img]image[/img]
[img]image[/img]
[img]image[/img]
[img]image[/img]
[img]image[/img]
[img]image[/img]

[img]image[/img]
----------------------------------------------------------------------------------------------------

[quote]
Encoded using revolutionary 10bit encoding, which enables us to provide you more crispier 
and sharper images at small sizes, just make sure you follow our instructions without a fault.
Recommend to you to use latest version of VLC player. Install K-Lite Codec Pack or shark007 codecs
in case of any kind of problem in playback (For non-VLC Media Player users). Alternatively, install
Core AVC codecs, the fastest decoder that there is coupled with Community Center Codec Pack and play
on Windows Media Player Classic. Check sample to be sure.
Enjoy!

Encoder Notes:Looking For Early Access To Anything You Can Provide DVDScr, R5, DVDR, BluRay, Direct
Audio, Music Releases and Seedboxes. We require dedicated servers, so as to do more 
and fast releases of movies.
If You Got anything to offer please contact us at "prg@hush.com".[/quote]

[img]image[/img]

[URL=http://www.facebook.com/p2pdl][IMG]image[/IMG][/URL][/center]
The Tower 2012 BRRip 720p x264 Korean ESubs - PRiSTiNE [P2PDL]/The Tower 2012 BRRip 720p x264 Korean ESubs - PRiSTiNE/The Tower 2012 BRRip 720p x264 Korean ESubs - PRiSTiNE.mp4 732.047 MB
The Tower 2012 BRRip 720p x264 Korean ESubs - PRiSTiNE [P2PDL]/Sample.mp4 7.866 MB
The Tower 2012 BRRip 720p x264 Korean ESubs - PRiSTiNE [P2PDL]/The Tower 2012 BRRip 720p x264 Korean ESubs - PRiSTiNE/The Tower 2012 BRRip 720p x264 Korean ESubs - PRiSTiNE.srt 72.833 KB
Gathering some info...

Register and log in Isohunt and see no captcha anymore!

4000 symbols left
Hash 57d32155ef7f3ff8938750b799cf725a6ab70d3e

Related torrents for "The Tower 2012 BRRip 720p x264 Korean ESubs - PRiSTiNE [P2PDL]"

Torrent search:

x264 hd 2012 bd