imdb
rating

7.4
The Yellow Sea

The Yellow Sea (2010)

Crime, Drama, Thriller

Full description
quality   dvdrip x264 hd bd h264 fullhd

The Yellow Sea 2010 BRRip 720p x264 Korean ESubs - PRiSTiNE [P2PDL]

Size 830.975 MB   13 seeders     Added 2013-05-02 10:05:36

Stream torrent
Starting‥ You need BitLord! Get it from BitLord.com
10
To download or stream you need BitLord. Visit them at BitLord.com
_________________________  Visit us at _________________________
  
http://p2pdl.com  ____________________________  http://p2pdl.com


The Yellow Sea 2010 BRRip 720p x264 Korean ESubs - PRiSTiNE [P2PDL]

Genre: Crime | Drama | Thriller
Plot: The story of a cab driver in Yanji City, a region between 
North Korea, China and Russia. His wife goes to Korea to earn money, 
but he doesn't hear from her since in 6 months. He plays mah-jong 
to make some extra cash, but this only makes his life worse; but 
then he meets a hitman who proposes to turn his life around by 
repaying his debt and reuniting with his wife, just for one hit.
Director: Hong-jin Na
Stars: Jung-woo Ha, Yun-seok Kim, Seong-Ha Cho
Rated: Rated R for brutal bloody violence, some strong sexuality, nudity, and language

Info: 
http://www.imdb.com/title/tt1230385/

General
Complete name                  : The Yellow Sea 2010 BRRip 720p x264 Korean ESubs - PRiSTiNE.mp4
Format                         : MPEG-4
File size                      : 786 MiB
Duration                       : 2h 20mn
Overall bit rate mode          : Variable
Overall bit rate               : 781 Kbps

Video
Format                         : AVC
Format/Info                    : Advanced Video Codec
Format profile                 : High 10@L4.1
Bit rate                       : 699 Kbps
Width                          : 1 280 pixels
Height                         : 544 pixels
Display aspect ratio           : 2.35:1
Frame rate mode                : Constant
Frame rate                     : 23.976 fps
Bit depth                      : 10 bits
Stream size                    : 702 MiB (89%)
Writing library                : x264 core 130 r2273 b3065e6

Audio
Format                         : AAC
Format/Info                    : Advanced Audio Codec
Bit rate mode                  : Variable
Bit rate                       : 79.8 Kbps
Channel(s)                     : 2 channels
Channel positions              : Front: L R
Sampling rate                  : 48.0 KHz / 24.0 KHz
Stream size                    : 80.3 MiB (10%)
Language                       : Korean

Subtitle                       : Yes (English)
Source                         : 720p.BluRay.DTS.x264-EbP (Thanks)

Screenshots:
 
image 
image 
image 
image 
image 
image 
image 
image 
image

----------------------------------------------------------------------------------------------------


Encoded using revolutionary 10bit encoding, which enables us to provide you more crispier 
and sharper images at small sizes, just make sure you follow our instructions without a fault.
Recommend to you to use latest version of VLC player. Install K-Lite Codec Pack or shark007 codecs
in case of any kind of problem in playback (For non-VLC Media Player users). Alternatively, install
Core AVC codecs, the fastest decoder that there is coupled with Community Center Codec Pack and play
on Windows Media Player Classic. Check sample to be sure.
Enjoy!

Encoder Notes:Looking For Early Access To Anything You Can Provide DVDScr, R5, DVDR, BluRay, Direct
Audio, Music Releases and Seedboxes. We require dedicated servers, so as to do more 
and fast releases of movies.
If You Got anything to offer please contact us at "prg@hush.com".

Face book Fan Page:   
http://www.fb.me/p2pdl		
The Yellow Sea 2010 BRRip 720p x264 Korean ESubs - PRiSTiNE [P2PDL]/The Yellow Sea 2010 BRRip 720p x264 Korean ESubs - PRiSTiNE/The Yellow Sea 2010 BRRip 720p x264 Korean ESubs - PRiSTiNE.mp4 823.931 MB
The Yellow Sea 2010 BRRip 720p x264 Korean ESubs - PRiSTiNE [P2PDL]/Sample.mp4 6.976 MB
The Yellow Sea 2010 BRRip 720p x264 Korean ESubs - PRiSTiNE [P2PDL]/The Yellow Sea 2010 BRRip 720p x264 Korean ESubs - PRiSTiNE/The Yellow Sea 2010 BRRip 720p x264 Korean ESubs - PRiSTiNE.srt 62.175 KB
Gathering some info...

Register and log in Isohunt and see no captcha anymore!

4000 symbols left
Hash 2b5e8ad431da247e7bec371670c81775ef013b0b

Related torrents for "The Yellow Sea 2010 BRRip 720p x264 Korean ESubs - PRiSTiNE [P2PDL]"

Torrent search:

x264 hd 2010 bd