imdb
rating

7.3
Rise of the Guardians

Rise of the Guardians (2012)

Animation, Family

Full description
quality   x264 hd bd dvdrip dvd fullhd

Rise of the Guardians [2012].BluRay Rip.720p.[Dual Audio] [Hindi+English].by K@rtik [ExD Exclusive]

Size 1.067 GB   0 seeders     Added 2013-05-02 12:07:34

Stream torrent
Starting‥ You need BitLord! Get it from 1BitLord.com
To download or stream you need BitLord. Visit them at BitLord.com

Rise of the Guardians [2012].BluRay Rip.720p.[Dual Audio] [Hindi+English].by K@rtik
Code:
Format                                   : Matroska
Format version                           : Version 4 / Version 2
File size                                : 1 003 MiB
Duration                                 : 1h 37mn
Overall bit rate                         : 1 443 Kbps
Encoded date                             : UTC 2013-05-01 08:53:44



Code:
Format                                   : AVC
Format/Info                              : Advanced Video Codec
Format profile                           : High@L3.1
Format settings, CABAC                   : Yes
Format settings, ReFrames                : 5 frames
Codec ID                                 : V_MPEG4/ISO/AVC
Duration                                 : 1h 37mn
Bit rate                                 : 898 Kbps
Width                                    : 1 280 pixels
Height                                   : 720 pixels
Display aspect ratio                     : 16:9
Frame rate mode                          : Constant
Frame rate                               : 23.976 fps
Color space                              : YUV
Chroma subsampling                       : 4:2:0
Bit depth                                : 8 bits
Scan type                                : Progressive
Bits/(Pixel*Frame)                       : 0.041
Stream size                              : 605 MiB (60%)
Writing library                          : x264 core 130 r2273 b3065e6



Code:
Format                                   : AC-3
Format/Info                              : Audio Coding 3
Mode extension                           : CM (complete main)
Format settings, Endianness              : Big
Codec ID                                 : A_AC3
Duration                                 : 1h 37mn
Bit rate mode                            : Constant
Bit rate                                 : 320 Kbps
Channel(s)                               : 6 channels
Channel positions                        : Front: L C R, Side: L R, LFE
Sampling rate                            : 48.0 KHz
Bit depth                                : 16 bits
Compression mode                         : Lossy
Stream size                              : 222 MiB (22%)
Language                                 : English
Default                                  : No



Code:
Format                                   : AC-3
Format/Info                              : Audio Coding 3
Mode extension                           : CM (complete main)
Format settings, Endianness              : Big
Codec ID                                 : A_AC3
Duration                                 : 1h 37mn
Bit rate mode                            : Constant
Bit rate                                 : 224 Kbps
Channel(s)                               : 2 channels
Channel positions                        : Front: L R
Sampling rate                            : 44.1 KHz
Bit depth                                : 16 bits
Compression mode                         : Lossy
Delay relative to video                  : 4s 500ms
Stream size                              : 156 MiB (16%)
Language                                 : Hindi

Original Audio==First On Net====K@rtik Exclusive==Sample In Torrent
Rise of the Guardians [2012].BluRay Rip.720p.[Dual Audio] [Hindi+English].by K@rtik [ExD Exclusive]/over.jpg 464.74 KB
Rise of the Guardians [2012].BluRay Rip.720p.[Dual Audio] [Hindi+English].by K@rtik [ExD Exclusive]/Rise of the Guardians [2012].BluRay Rip.720p.[Dual Audio] [Hindi+English].by K@rtik [ExD Exclusive].srt 155.288 KB
Rise of the Guardians [2012].BluRay Rip.720p.[Dual Audio] [Hindi+English].by K@rtik [ExD Exclusive]/Rise of the Guardians [2012].BluRay Rip.720p.[Dual Audio] [Hindi+English].by K@rtik [ExD Exclusive].mkv 1.052 GB
Gathering some info...

Register and log in Isohunt and see no captcha anymore!

4000 symbols left
Hash 425e7f4ca9bc9b1ed00a43c9ff183705da509711

Related torrents for "Rise of the Guardians [2012].BluRay Rip.720p.[Dual Audio] [Hindi+English].by K@rtik [ExD Exclusive]"

Torrent search:

english hd hindi 2012 bd