Ajj De Ranjhe

Size 767.319 MB   0 seeders     Added 2013-05-02 13:51:38

Stream torrent
Starting‚Ä• You need BitLord! Get it from 1BitLord.com
To download or stream you need BitLord. Visit them at BitLord.com
IMDB Link: http://www.imdb.com/title/tt2440140/
IMDB Rating: 5.0/10.0
GENRE: Drama
Complete name : Ajj De Ranjhe
Format : Matroska
Format version : Version 4 / Version 2
File size : 723 MiB
Duration : 2h 24mn
Overall bit rate : 701 Kbps
Movie name : Ajj De Ranjhe (2012) 720p DVDRip X264 (Non-Hindi) [Punjabi] {R@J@T}
Encoded date : UTC 2013-05-02 04:30:55
Writing application : mkvmerge v6.1.0 ('Old Devil') built on Mar 2 2013 14:32:37
Writing library : libebml v1.3.0 + libmatroska v1.4.0
ID : 1
Format : MPEG-4 Visual
Format profile : Advanced Simple@L5
Format settings, BVOP : Yes
Format settings, QPel : No
Format settings, GMC : No warppoints
Format settings, Matrix : Default (MPEG)
Codec ID : V_MS/VFW/FOURCC / XVID
Codec ID/Hint : XviD
Duration : 2h 24mn
Bit rate : 559 Kbps
Width : 672 pixels
Height : 288 pixels
Display aspect ratio : 2.35:1
Frame rate mode : Constant
Frame rate : 29.970 fps
Color space : YUV
Chroma subsampling : 4:2:0
Bit depth : 8 bits
Scan type : Progressive
Compression mode : Lossy
Bits/(Pixel*Frame) : 0.096
Stream size : 576 MiB (80%)
Title : R@J@T
Writing library : XviD 1.2.1 (UTC 2008-12-04)
Language : English
Default : Yes
Forced : No
ID : 2
Format : AC-3
Format/Info : Audio Coding 3
Mode extension : CM (complete main)
Format settings, Endianness : Big
Codec ID : A_AC3
Duration : 2h 24mn
Bit rate mode : Constant
Bit rate : 128 Kbps
Channel(s) : 6 channels
Channel positions : Front: L C R, Side: L R, LFE
Sampling rate : 48.0 KHz
Bit depth : 16 bits
Compression mode : Lossy
Stream size : 132 MiB (18%)
Title : R@J@T - [Punjbai]
Default : Yes
Forced : No
SPECIAL NOTE: CHECK SCREEN SHOTS AND SAMPLE BEFORE DOWNLOAD FOR SATISFACTION
SPECIAL THANKS: K@rtik
IF YOU LIKE MY WORK PLEASE SEED THE TORRENT
Ajj De Ranjhe/Ajj De Ranjhe.mkv 757.798 MB
Ajj De Ranjhe/Sample/Sample.mkv 9.521 MB
Gathering some info...

Register and log in Isohunt and see no captcha anymore!

4000 symbols left
Hash 6af7d1fab31130b68192096b72ffdfc399e82316