Iron Man 3 2013 FRENCH DVDRip XviD - PTpOWeR Verified

Size 734.167 MB   0 seeders     Added 2013-05-02 15:07:33

To download or stream you need BitLord. Visit them at BitLord.com
Iron Man 3 2013 FRENCH DVDRip XviD - PTpOWeR



   
Video
ID                               : 0
Format                           : MPEG-4 Visual
Format profile                   : Advanced Simple@L5
Format settings, BVOP            : 2
Format settings, QPel            : No    
Format settings, GMC             : No warppoints
Format settings, Matrix          : Default (H.263)                  
Muxing mode                      : Packed bitstream                
Codec ID                         : XVID                     
Codec ID/Hint                    : XviD      
Duration                         : 2h 20mn            
Bit rate                         : 802 Kbps        
Width                            : 720 pixels
Height                           : 310 pixels    
Display aspect ratio             : 2.500
Frame rate                       : 23.976 fps
Color space                      : YUV
Chroma subsampling               : 4:2:0
Bit depth                        : 8 bits      
Scan type                        : Progressive    
Compression mode                 : Lossy
Bits/(Pixel*Frame)               : 0.420
Stream size                      : 657 MiB (94%)
Writing library                  : XviD 64
                               
Audio
ID                               : 1
Format                           : MPEG Audio         
Format version                   : Version 1
Format profile                   : Layer 3
Mode                             : Joint stereo
Mode extension                   : MS Stereo
Codec ID                         : 55
Codec ID/Hint                    : MP3
Duration                         : 2h 20mn
Bit rate mode                    : Constant
Bit rate                         : 128 Kbps
Channel(s)                       : 2 channels
Sampling rate                    : 44.1 KHz
Compression mode                 : Lossy
Stream size                      : 42.7 MiB (6%)
Alignment                        : Split accross interleaves
Interleave, duration             : 42 ms (1.00 video frame)

Notes -
Nothing you need to know other than its very nice ;)
                                                    
Iron Man 3 2013 FRENCH DVDRip XviD - PTpOWeR/cover.jpg 270.944 KB
Iron Man 3 2013 FRENCH DVDRip XviD - PTpOWeR/Iron Man 3 2013 FRENCH DVDRip XviD - PTpOWeR.nfo 2.202 KB
Iron Man 3 2013 FRENCH DVDRip XviD - PTpOWeR/Iron Man 3 2013 FRENCH DVDRip XviD - PTpOWeR/Iron Man 3 2013 FRENCH DVDRip XviD - PTpOWeR.rar 733.685 MB
Gathering some info...

Register and log in Isohunt and see no captcha anymore!

4000 symbols left
Hash 878c4ee591f670f8e857746e025da9fe73fd9b3f