Nazar milayi tumne Kumar Sanu by B!nd@$$

Size 34.804 MB   0 seeders     Added 2013-05-02 19:08:33

Stream torrent
Starting‚Ä• You need BitLord! Get it from BitLord.com
To download or stream you need BitLord. Visit them at BitLord.com
Mulan I---->Rating:-7.3/10Mulan II---->Rating:-5.6/10
----Mulan I----
This retelling of the old Chinese folktale is about the story of a young Chinese maiden who learns that her weakened and lame father is to be called up into the army in order to fight the invading Huns. Knowing that he would never survive the rigours of war in his state, she decides to disguise herself and join in his place. Unknown to her, her ancestors are aware of this and to prevent it, they order a tiny disgraced dragon, Mushu to join her in order to force her to abandon her plan. He agrees, but when he meets Mulan, he learns that she cannot be dissuaded and so decides to help her in the perilous times ahead.
----Mulan II----
Fa Mulan gets the surprise of her young life when her love, Captain (now General) Li Shang asks for her hand in marriage. Before the two can have their happily ever after, the Emperor assigns them a secret mission, to escort three princesses to Qui Gong, China. Mushu is determined to drive a wedge between the couple after he learns that he will lose his guardian job if Mulan marries into the Li family. After the princesses unexpectedly fall in love with the Gang of Three, Mulan decides to help them escape the fate of marrying men they do not love. This contradicts the Emperor's orders and forces him to put Mulan's relationship with Shang into question. They are attacked by Mongolians, and the fate of China hangs in the balance.
----Mulan I----
Miguel Ferrer	 ...	Shan-Yu (voice)
Harvey Fierstein ...	Yao (voice)
Freda Foh Shen	 ...	Fa Li (voice)
June Foray	 ...	Grandmother Fa (voice)
James Hong	 ...	Chi Fu (voice)
Miriam Margolyes ...	The Matchmaker (voice)
Pat Morita	 ...	The Emperor (voice)
Eddie Murphy	 ...	Mushu (voice)
Marni Nixon	 ...	Grandmother Fa (singing voice)
Soon-Tek Oh	 ...	Fa Zhou (voice)
Donny Osmond	 ...	Shang (singing voice)
Lea Salonga	 ...	Mulan (singing voice)
James Shigeta	 ...	General Li (voice)
George Takei	 ...	First Ancestor (voice)
Jerry Tondo	 ...	Chien-Po (voice) (as Jerry S. Tondo)
----Mulan II----
Ming-Na Wen	 ...	Mulan (voice) (as Ming-Na)
BD Wong	         ...	Shang (voice)
Mark Moseley	 ...	Mushu (voice)
Lucy Liu	 ...	Mei (voice)
Harvey Fierstein ...	Yao (voice)
Sandra Oh	 ...	Ting Ting (voice)
Gedde Watanabe	 ...	Ling (voice)
Lauren Tom	 ...	Su (voice)
Jerry Tondo	 ...	Chien-Po (voice)
Pat Morita	 ...	The Emperor (voice)
George Takei	 ...	First Ancestor (voice)
June Foray	 ...	Grandmother Fa (voice)
Freda Foh Shen	 ...	Fa Li (voice)
Soon-Tek Oh	 ...	Fa Zhou (voice)
Frank Welker	 ...	Cri-Kee (voice)
----Mulan I----
Video
ID                               : 1
Format                           : AVC
Format/Info                      : Advanced Video Codec
Format profile                   : Main@L4.0
Format settings, CABAC           : Yes
Format settings, ReFrames        : 4 frames
Muxing mode                      : Header stripping
Codec ID                         : V_MPEG4/ISO/AVC
Duration                         : 1h 24mn
Bit rate                         : 2 216 Kbps
Width                            : 1 824 pixels
Height                           : 1 080 pixels
Display aspect ratio             : 1.689
Frame rate mode                  : Variable
Frame rate                       : 25.000 fps
Color space                      : YUV
Chroma subsampling               : 4:2:0
Bit depth                        : 8 bits
Scan type                        : Progressive
Bits/(Pixel*Frame)               : 0.045
Stream size                      : 1.30 GiB (82%)
Audio #1
ID                               : 2
Format                           : AC-3
Format/Info                      : Audio Coding 3
Mode extension                   : CM (complete main)
Muxing mode                      : Header stripping
Codec ID                         : A_AC3
Duration                         : 1h 24mn
Bit rate mode                    : Constant
Bit rate                         : 224 Kbps
Channel(s)                       : 6 channels
Channel positions                : Front: L C R, Side: L R, LFE
Sampling rate                    : 48.0 KHz
Bit depth                        : 16 bits
Compression mode                 : Lossy
Stream size                      : 135 MiB (8%)
Language                         : English
Audio #2
ID                               : 3
Format                           : MPEG Audio
Format version                   : Version 1
Format profile                   : Layer 2
Muxing mode                      : Header stripping
Codec ID                         : A_MPEG/L2
Codec ID/Hint                    : MP2
Duration                         : 1h 24mn
Bit rate mode                    : Constant
Bit rate                         : 224 Kbps
Channel(s)                       : 2 channels
Sampling rate                    : 48.0 KHz
Compression mode                 : Lossy
Delay relative to video          : 24ms
Stream size                      : 135 MiB (8%)
Language                         : Hindi
Subtitle Languages               : English
----Mulan II----
Video
ID                               : 1
Format                           : AVC
Format/Info                      : Advanced Video Codec
Format profile                   : Main@L4.0
Format settings, CABAC           : Yes
Format settings, ReFrames        : 4 frames
Format settings, GOP             : M=3, N=16
Muxing mode                      : Header stripping
Codec ID                         : V_MPEG4/ISO/AVC
Duration                         : 1h 15mn
Bit rate                         : 2 161 Kbps
Width                            : 1 920 pixels
Height                           : 1 080 pixels
Display aspect ratio             : 16:9
Frame rate mode                  : Variable
Frame rate                       : 25.000 fps
Color space                      : YUV
Chroma subsampling               : 4:2:0
Bit depth                        : 8 bits
Scan type                        : Progressive
Bits/(Pixel*Frame)               : 0.042
Stream size                      : 1.14 GiB (80%)
Audio #1
ID                               : 2
Format                           : AC-3
Format/Info                      : Audio Coding 3
Mode extension                   : CM (complete main)
Muxing mode                      : Header stripping
Codec ID                         : A_AC3
Duration                         : 1h 15mn
Bit rate mode                    : Constant
Bit rate                         : 224 Kbps
Channel(s)                       : 6 channels
Channel positions                : Front: L C R, Side: L R, LFE
Sampling rate                    : 48.0 KHz
Bit depth                        : 16 bits
Compression mode                 : Lossy
Stream size                      : 121 MiB (8%)
Language                         : English
Audio #2
ID                               : 3
Format                           : AC-3
Format/Info                      : Audio Coding 3
Mode extension                   : CM (complete main)
Muxing mode                      : Header stripping
Codec ID                         : A_AC3
Duration                         : 1h 15mn
Bit rate mode                    : Constant
Bit rate                         : 256 Kbps
Channel(s)                       : 2 channels
Channel positions                : Front: L R
Sampling rate                    : 48.0 KHz
Bit depth                        : 16 bits
Compression mode                 : Lossy
Delay relative to video          : 8ms
Stream size                      : 138 MiB (10%)
Language                         : Hindi
Subtitle Languages               : English            Mulan I -->SAMPLE VIDEOMulan II -->SAMPLE VIDEO
Nazar milayi tumne Kumar Sanu by B!nd@$$/Mp3/Nazar Milai Tum Ne Dil Kumar Sanu (Soft Version).mp3 10.144 MB
Nazar milayi tumne Kumar Sanu by B!nd@$$/Mp3/Nazar Milayi tumne dil na milaya (OST).mp3 9.966 MB
Nazar milayi tumne Kumar Sanu by B!nd@$$/Video/Nazar Milayi tumne dil na milaya (OST).FLV 7.558 MB
Gathering some info...

Register and log in Isohunt and see no captcha anymore!

4000 symbols left
Hash 854d1113ef81d0d774df748e0a8d0a4954861f11