imdb
rating

6.9
Stay

Stay (2005)

Drama, Mystery, Thriller

Full description

Stay 2005 BRRip 720p x264 AAC - PRiSTiNE [P2PDL] Verified

Size 617.477 MB   0 seeders     Added 2013-05-02 19:16:35

Stream torrent
Starting‥ You need BitLord! Get it from BitLord.com
To download or stream you need BitLord. Visit them at BitLord.com
_________________________  Visit us at _________________________
  
http://p2pdl.com  ____________________________  http://p2pdl.com


Stay 2005 BRRip 720p x264 AAC - PRiSTiNE [P2PDL]

Genre: Drama | Mystery | Thriller
Plot: This movie focuses on the attempts of a psychiatrist 
to prevent one of his patients from committing suicide 
while trying to maintain his own grip on reality.
Director: Marc Forster
Stars:  Ewan McGregor, Ryan Gosling, Kate Burton
Rated: Rated R for language and some disturbing images

Info: 
http://www.imdb.com/title/tt0371257/

General
Complete name                  : Stay 2005 BRRip 720p x264 AAC - PRiSTiNE.mp4
Format                         : MPEG-4
File size                      : 581 MiB
Duration                       : 1h 38mn
Overall bit rate mode          : Variable
Overall bit rate               : 822 Kbps

Video
Format                         : AVC
Format/Info                    : Advanced Video Codec
Format profile                 : High 10@L4.1
Bit rate                       : 739 Kbps
Width                          : 1 280 pixels
Height                         : 544 pixels
Display aspect ratio           : 2.35:1
Frame rate mode                : Constant
Frame rate                     : 23.976 fps
Bit depth                      : 10 bits
Stream size                    : 523 MiB (90%)
Writing library                : x264 core 130 r2273 b3065e6

Audio
Format                         : AAC
Format/Info                    : Advanced Audio Codec
Bit rate                       : 79.8 Kbps
Channel(s)                     : 2 channels
Channel positions              : Front: L R
Sampling rate                  : 48.0 KHz / 24.0 KHz
Stream size                    : 56.5 MiB (10%)
Language                       : English

Subtitle                       : Yes (English)
Source                         : 720p.BluRay.DTS.x264-CRiSC (Thanks)

Screenshots:
 
image 
image 
image 
image 
image

----------------------------------------------------------------------------------------------------


Encoded using revolutionary 10bit encoding, which enables us to provide you more crispier 
and sharper images at small sizes, just make sure you follow our instructions without a fault.
Recommend to you to use latest version of VLC player. Install K-Lite Codec Pack or shark007 codecs
in case of any kind of problem in playback (For non-VLC Media Player users). Alternatively, install
Core AVC codecs, the fastest decoder that there is coupled with Community Center Codec Pack and play
on Windows Media Player Classic. Check sample to be sure.
Enjoy!

Encoder Notes:Looking For Early Access To Anything You Can Provide DVDScr, R5, DVDR, BluRay, Direct
Audio, Music Releases and Seedboxes. We require dedicated servers, so as to do more 
and fast releases of movies.
If You Got anything to offer please contact us at "prg@hush.com".

Face book Fan Page:   
http://www.fb.me/p2pdl		
Stay 2005 BRRip 720p x264 AAC - PRiSTiNE [P2PDL]/Stay 2005 BRRip 720p x264 AAC - PRiSTiNE/Stay 2005 BRRip 720p x264 AAC - PRiSTiNE.mp4 609.733 MB
Stay 2005 BRRip 720p x264 AAC - PRiSTiNE [P2PDL]/Sample.mp4 7.648 MB
Stay 2005 BRRip 720p x264 AAC - PRiSTiNE [P2PDL]/Stay 2005 BRRip 720p x264 AAC - PRiSTiNE/Stay 2005 BRRip 720p x264 AAC - PRiSTiNE.srt 90.233 KB
Gathering some info...

Register and log in Isohunt and see no captcha anymore!

4000 symbols left
Hash 5633bcd768f9cfc5b39a1663013c2cdee6542051

Related torrents for "Stay 2005 BRRip 720p x264 AAC - PRiSTiNE [P2PDL]"

Torrent search:

2005 x264 hd bd