imdb
rating

7.3
Off the Map

Off the Map (2003)

Drama

Full description
quality   dvdrip

Off The Map 2003 DVDRip XViD-Reupload by titler Verified

Size 746.211 MB   0 seeders     Added 2013-05-02 19:17:36

Stream torrent
Starting‥ You need BitLord! Get it from BitLord.com
To download or stream you need BitLord. Visit them at BitLord.com
SOURCE: This is reupload: 'Off The Map 2003 LiMiTED DVDRip XViD-ALLiANCE'

 
http://www.imdb.com/title/tt0332285/

 
http://www.rottentomatoes.com/m/off-the-map/



-SAMPLE: Yes

-SUBTITLE: English, Croatian

-LANGUAGE: English


DIRECTOR: Campbell Scott


CAST:
--------
Joan Allen, Sam Elliott, Valentina de Angelis, J.K. Simmons, Jim True-Frost, Amy Brenneman


PLOT:
---------
Campbell Scott directed this offbeat comedy drama about a free-thinking family who find themselves confronted by the more regimented outside world. Bo Groden (Valentina d'Angelis) is an 11-year-old girl growing up as part of a decidedly eccentric family in a small town in New Mexico. Bo's father, Charley (Sam Elliott), has fallen into a deep depression for reasons no one can understand, while her mother, Arlene (Joan Allen), holds the household together, raising most of their food in her vegetable garden, which she prefers to tend in the nude. Bo, meanwhile, satisfies her sweet tooth by writing candy companies claiming to have had problems with their products, which usually results in a box of fresh goodies. While the Grodens get by through living within simple means, one day an Internal Revenue Agent appears at their door, wanting to know why the family hasn't paid income tax for several years -- and not believing there has been no appreciable income for so many years.


General
------------
Format : AVI
Format/Info : Audio Video Interleave
File size : 700 MiB
Duration : 1h 50mn
Overall bit rate mode : Variable
Overall bit rate : 883 Kbps
Writing application : Nandub v1.0rc2
Writing library : Nandub build 1853


Video
-----------
Format : MPEG-4 Visual
Format settings, BVOP : Yes
Format settings, QPel : No
Format settings, GMC : No warppoints
Format settings, Matrix : Default (H.263)
Codec ID : XVID
Codec ID/Hint : XviD
Duration : 1h 50mn
Bit rate : 728 Kbps
Width : 576 pixels
Height : 304 pixels
Display aspect ratio : 1.895
Frame rate : 23.976 fps
Color space : YUV
Chroma subsampling : 4:2:0
Bit depth : 8 bits
Scan type : Progressive
Compression mode : Lossy
Bits/(Pixel*Frame) : 0.173
Stream size : 577 MiB (82%)


Audio
--------
Format : MPEG Audio
Format version : Version 1
Format profile : Layer 3
Mode : Joint stereo
Mode extension : MS Stereo
Codec ID : 55
Codec ID/Hint : MP3
Duration : 1h 50mn
Bit rate mode : Variable
Bit rate : 142 Kbps
Channel(s) : 2 channels
Sampling rate : 48.0 KHz
Compression mode : Lossy
Stream size : 112 MiB (16%)
Alignment : Aligned on interleaves
Interleave, duration : 24 ms (0.58 video frame)
Interleave, preload duration : 124 ms
Writing library : LAME3.91		
Off The Map 2003 DVDRip XViD-Reupload by titler/Off The Map 2003 DVDRip XViD-Reupload by titler.avi 733.676 MB
Off The Map 2003 DVDRip XViD-Reupload by titler/Sample.avi 12.056 MB
Off The Map 2003 DVDRip XViD-Reupload by titler/Off the Map (2003).jpg 330.793 KB
Gathering some info...

Register and log in Isohunt and see no captcha anymore!

4000 symbols left
Hash d3d616409e6306c12f5cd9a8cb31e4be13c2383b

Related torrents for "Off The Map 2003 DVDRip XViD-Reupload by titler"

Torrent search:

dvdrip 2003