imdb
rating

7.9
Arrow

Arrow (2012)

Action, Adventure, Crime, Drama, Mystery, Science Fiction

Full description

Arrow S01E21 The Undertaking 720p 1290X720 mpg4

Size 471.154 MB   0 seeders     Added 2013-05-02 19:59:37

Stream torrent
Starting‥ You need BitLord! Get it from 1BitLord.com
To download or stream you need BitLord. Visit them at BitLord.com
							The Undertaking
Finding it difficult to mend fences with Tommy and Diggle, Oliver instead focuses on crossing another name off the list. While digging through a crooked accountant's laptop, Felicity discovers a transaction that could help Oliver find Walter. To reconfirm the lead, Oliver gambles that Felicity can be counted on in the field for the first time. In a flashback, Malcolm reveals to Robert Queen and Frank Chen painful details surrounding his wife's murder, and how that shaped his plans for the Glades. Meanwhile, Tommy stuns Laurel with the truth.
General
Complete name : Arrow S01E21 The Undertaking 720p 1280X720.mp4
Format : MPEG-4
Format profile : Base Media
Codec ID : isom
File size : 446 MiB
Duration : 42mn 32s
Overall bit rate : 1 467 Kbps
Writing application : Lavf54.59.106
Video
ID : 1
Format : AVC
Format/Info : Advanced Video Codec
Format profile : High@L3.1
Format settings, CABAC : Yes
Format settings, ReFrames : 5 frames
Codec ID : avc1
Codec ID/Info : Advanced Video Coding
Duration : 42mn 32s
Bit rate mode : Variable
Bit rate : 1 333 Kbps
Width : 1 280 pixels
Height : 720 pixels
Display aspect ratio : 16:9
Frame rate mode : Variable
Frame rate : 23.976 fps
Minimum frame rate : 1.079 fps
Maximum frame rate : 1 000.000 fps
Color space : YUV
Chroma subsampling : 4:2:0
Bit depth : 8 bits
Scan type : Progressive
Bits/(Pixel*Frame) : 0.060
Stream size : 406 MiB (91%)
Audio
ID : 2
Format : AAC
Format/Info : Advanced Audio Codec
Format profile : LC
Codec ID : 40
Duration : 42mn 32s
Bit rate mode : Constant
Bit rate : 128 Kbps
Channel(s) : 2 channels
Channel positions : Front: L R
Sampling rate : 48.0 KHz
Compression mode : Lossy
Stream size : 39.0 MiB (9%)
Arrow S01E21 The Undertaking 720p 1290X720 mpg4/Arrow S01E21 The Undertaking 720p 1290X720.mp4 468.112 MB
Arrow S01E21 The Undertaking 720p 1290X720 mpg4/vlcsnap-2013-05-02-07h34m04s65.png 1.107 MB
Arrow S01E21 The Undertaking 720p 1290X720 mpg4/vlcsnap-2013-05-02-07h35m55s145.png 1.088 MB
Gathering some info...

Register and log in Isohunt and see no captcha anymore!

4000 symbols left
Hash 5a307c839343fa243fb92be0741f4e3c5fa6928e

Related torrents for "Arrow S01E21 The Undertaking 720p 1290X720 mpg4"

Torrent search:

season 01 hd episode 21 2013