imdb
rating

7.1
Marley & Me

Marley & Me (2008)

Adventure, Comedy, Family

Full description
quality   screener dvdrip hdtv x264 bd hd dvdr

Marley & Me 2008.BluRay.x264 . NVEE

Size 2.68 GB   0 seeders     Added 2013-05-02 21:17:36

Stream torrent
Starting‥ You need BitLord! Get it from 1BitLord.com
To download or stream you need BitLord. Visit them at BitLord.com

FULL_INFOs


99.99% - SYNCED GUARANTEED 

Source : BluRay ~ 1080p

My Media Player of Choice "VLC Media Player"

Spoken Language : English Only

Audio : 6 ~ Channels 

 
http://www.imdb.com/title/tt0822832/


Subs Info : MULTI_SUBS
 
http://www.subtitleseeker.com/0822832/Marley+&+Me/Subtitles/

400 Subtitles In 32 Languages Use Link Provided 
 
http://www.subtitleseeker.com/0822832/Marley+&+Me/Subtitles/

400 Subtitles In 32 Languages Only @ SubtitleSeeker
 
http://www.subtitleseeker.com/0822832/Marley+&+Me/Subtitles/

All .srt subs can be turned On/Off


 
http://www.imdb.com/title/tt0822832/



General 

Complete name : Marley & Me 2008.1080p.BluRay.x264 . NVEE.mp4 
Format : MPEG-4 
Format profile : Base Media 
Codec ID : isom 
File size : 2.50 GiB 
Duration : 1h 55mn 
Overall bit rate : 3 091 Kbps 
Encoded date : UTC 2013-05-01 23:44:09 
Tagged date : UTC 2013-05-01 23:44:09 

Video 

ID : 1 
Format : AVC 
Format/Info : Advanced Video Codec 
Format profile : High@L4.0 
Format settings, CABAC : Yes 
Format settings, ReFrames : 4 frames 
Codec ID : avc1 
Codec ID/Info : Advanced Video Coding 
Duration : 1h 55mn 
Bit rate : 2 512 Kbps 
Maximum bit rate : 12.2 Mbps 
Width : 1 920 pixels 
Height : 1 080 pixels 
Display aspect ratio : 16:9 
Frame rate mode : Constant 
Frame rate : 23.976 fps 
Color space : YUV 
Chroma subsampling : 4:2:0 
Bit depth : 8 bits 
Scan type : Progressive 
Bits/(Pixel*Frame) : 0.051 
Stream size : 2.03 GiB (81%) 
Title : 1080p.BluRay.x264 .264#trackID=1:fps=23.976@GPAC0.5.1-DEV-rev4283 
Encoded date : UTC 2013-05-01 23:44:09 
Tagged date : UTC 2013-05-01 23:57:07 

Audio 

ID : 2 
Format : AC-3 
Format/Info : Audio Coding 3 
Mode extension : CM (complete main) 
Format settings, Endianness : Big 
Codec ID : ac-3 
Duration : 1h 55mn 
Bit rate mode : Constant 
Bit rate : 576 Kbps 
Channel(s) : 6 channels 
Channel positions : Front: L C R, Side: L R, LFE 
Sampling rate : 48.0 KHz 
Bit depth : 16 bits 
Compression mode : Lossy 
Stream size : 476 MiB (19%) 
Title : 1080p.BluRay.x264 . NVEE - [0] English_audio.ac3#trackID=1:lang=en@GPAC0.5.1-DEV-rev4283 
Language : English 
Encoded date : UTC 2013-05-01 23:55:36 
Tagged date : UTC 2013-05-01 23:57:07 


 
http://www.imdb.com/title/tt0822832/



Plot

Soon after their wedding, John and Jenny Grogan (Owen Wilson and Jennifer Aniston) escape the brutal Michigan winters and relocate to a cottage in South Florida, where they are hired as reporters for competing newspapers. At The Palm Beach Post, Jenny immediately receives prominent front-page assignments, while at the South Florida Sun-Sentinel, John finds himself writing obituaries and two-paragraph articles about mundane news like a fire at the local garbage dump.
When John senses Jenny is contemplating motherhood, his friend and co-worker Sebastian Tunney (Eric Dane) suggests the couple adopt a dog to see if they're ready to raise a family. From a litter of newborn yellow labrador retrievers they select Marley (named after reggae singer Bob Marley), who immediately proves to be incorrigible. They take him to Ms. Kornblut (Kathleen Turner), who firmly believes any dog can be trained, but when Marley refuses to obey commands, she expels him from her class.
Editor Arnie Klein (Alan Arkin) offers John a twice-weekly column in which he can discuss the fun and foibles of everyday living. At first stumped for material, John realizes the misadventures of Marley might be the perfect topic for his first piece. Arnie agrees, and John settles into his new position. Marley continues to wreak havoc on the household, providing John with a wealth of material for his column, which becomes a hit with readers and helps increase the newspaper's circulation. Jenny becomes pregnant, but loses the baby early in her first trimester. She and John travel to Ireland for a belated honeymoon, leaving the rambunctious dog in the care of a young woman who finds him impossible to control, especially during the frequent thunderstorms that plague the area. Soon after returning from their vacation, Jenny discovers she is pregnant again, and this time she delivers a healthy boy, Patrick. When she has a second son, Connor, she opts to give up her job and become a stay-at-home mom, prompting John to take on a daily column for a pay increase. Due to the crime rate, the couple decides to move to a larger house in the safer neighborhood of Boca Raton, where Marley delights in swimming in the backyard pool.
Although she denies she is experiencing postpartum depression, Jenny exhibits all the symptoms, including a growing impatience with Marley and John, who asks Sebastian to care for the dog when Jenny insists they give him away. She quickly comes to realize he has become an indispensable part of the family and agrees he can stay. Sebastian accepts a job for The New York Times and moves away.
John celebrates his 40th birthday. Increasingly disenchanted with his job, he decides to accept a position as a reporter with The Philadelphia Inquirer with Jenny's blessing, and the family moves to a farm in rural Pennsylvania. John soon realizes that he is a better columnist than reporter and pitches the column idea to his editor. Life is idyllic until the aging Marley begins to show signs of arthritis and deafness. An attack of gastric dilatation volvulus almost kills him, but he recovers. When a second attack occurs, it becomes clear surgery will not help him, and Marley is euthanized with John at his side. The family pay their last respects to their beloved pet as they bury him beneath a tree in their front yard.


SEE ME TORRENTS'N SEED ME TORRENTS !!!

            (Thank You)		
Marley & Me 2008.BluRay.x264 . NVEE/Marley & Me 2008.1080p.BluRay.x264 . NVEE.mp4 2.679 GB
Marley & Me 2008.BluRay.x264 . NVEE/Marley-and-Me-movie-poster.jpg 156.717 KB
Marley & Me 2008.BluRay.x264 . NVEE/466poster.jpg 100.718 KB
Gathering some info...

Register and log in Isohunt and see no captcha anymore!

4000 symbols left
Hash e9543b0f3c18ff8c29340ad60bfbfc5176e15532

Related torrents for "Marley & Me 2008.BluRay.x264 . NVEE"

Torrent search:

x264 2008 bd