Revolution.2012.S01E14-15.HDTV.x264.Sub_Ita-[iDN_CreW]

Size 639.291 MB   11 seeders     Added 2013-05-02 21:39:40

Stream torrent
Starting‥ You need BitLord! Get it from BitLord.com
To download or stream you need BitLord. Visit them at BitLord.com
							
[font=Arial Black]Titolo: Revolution
Paese: USA
Genere: drammatico, fantascienza
Lingua: Inglese
Stagione: 1
Episodi: 13
Durata: 45 min ad episodio
Anno: 2012
Ideatore: Erik Kripke
Produttore Esecutivo: Eric Kripke, Bryan Burk, J.J. Abrams, Jon Favreau
Casa di Produzione: Bad Robot Productions, Warner Bros. Television
Distribuzione (USA): NBC dal 17 Settembre 2012 e in corso
Distribuzione (ITALIA): Inedita[/font]
[font=arial black]Charlie Matheson, interpretata da Tracy Spiridakos.[/font]
È una ragazza già orfana di madre il cui padre Ben rimane ucciso nel tentativo di essere arrestato e il fratello rapito.
[font=arial black]Danny Matheson, interpretato da Graham Rogers.[/font]
È il fratello di Charlie, sofferente di asma, rapito dagli uomini della milizia della Repubblica di Monroe.
[font=arial black]Miles Matheson, interpretato da Billy Burke.[/font]
È lo zio di Charlie, anche lui ricercato dalla milizia. Riluttante, accetta di affiancare la nipote alla ricerca del fratello.
[font=arial black]Aaron, interpretato da Zak Orth.[/font]
È un insegnante e scienziato. Era un amico del padre di Charlie, il quale, prima di morire, gli ha donato un misterioso oggetto da custodire. Anche lui affianca Charlie nel suo viaggio.
[font=arial black]Grace, interpretata da Maria Howell.[/font]
È una donna che offre aiuto a Danny nel tentativo di sfuggire agli uomini della milizia, ma poi si vede costretta a consegnarlo per evitare che venga scoperto un suo segreto più grande.
[font=arial black] Nate Walker, interpretato da J. D. Pardo.[/font]
È un membro della milizia che si finge amico di Charlie per seguirla e scoprire dove si nasconde Miles.
[font=arial black]Capitano Tom Neville, interpretato da Giancarlo Esposito.[/font]
È un capitano della milizia che controlla la Repubblica di Monroe. I suoi uomini hanno ucciso Ben e rapito Danny.
[font=arial black]Generale Sebastian Monroe, interpretato da David Lyons.[/font]
È un ex marine, ex migliore amico di Miles, da cui si faceva chiamare Bass. Ora è leader della Repubblica di Monroe.
[font=arial black]Ben Matheson, interpretato da Tim Guinee.è[/font]
Era il padre di Danny e Charlie, che rimane ucciso dagli uomini della milizia. Apparentemente era a conoscenza del black out da prima che si verificasse.
[font=arial black]Rachel Matheson, interpretata da Elizabeth Mitchell.[/font]
Era la moglie di Ben, morta dopo il black out globale.
[font=arial black]1. Pilot
2. Chained Heat
3. No Quarter
4. The Plague Dogs
5. Soul Train
6. Sex and Drugs
7. The Children's Crusade
8. Ties That Bind
9. Kashmir
10. Nobody's Fault But Mine
11. The Stand
12. Ghosts
13. The Song Remains the Same
14. The Night the Lights Went Out in Georgia
15. Home
....
[/font]
[font=arial black]
A seguito di un misterioso evento, la Terra si ritrova improvvisamente priva di energia elettrica, tutti i dispositivi elettronici smettono di funzionare e persino le pile diventano inutili. Quindici anni dopo, il mondo è quindi radicalmente cambiato: le tradizionali forme di governo locali e nazionali sono un lontano ricordo e la società riscopre forme di organizzazione precedenti alla prima rivoluzione industriale. In tale scenario, le persone si ritrovano costrette a lottare quotidianamente per sopravvivere cercando di sfruttare al meglio le proprie abilità, fisiche o intellettuali che siano, cercando nel frattempo di capire cosa abbia determinato la rivoluzione in cui si sono malgrado ritrovati. Tra loro vi è Charlie Matheson, una ragazza il cui padre, per non chiari motivi, viene ucciso e il fratello Danny rapito dagli uomini della milizia che controlla il territorio in cui vivono. Charlie si vedrà costretta quindi ad intraprendere un viaggio per trovare lo zio Miles, anche lui ricercato dalla milizia e mai conosciuto prima, sperando con il suo aiuto di poter ritrovare Danny e capire il perché la milizia abbia tentato di arrestare il padre e lo zio.
[/font]
[font=arial black] Revolution è una serie TV di genere fantascienza creata da J.J. Abrams (Lost), Eric Kripke (Supernatural). Prodotta in USA. La serie viene trasmessa dal 17.09.2012 e per ora è composta da 1 stagione. Inedita in Italia.
Sarà una storia di genere avventura/thriller, come quasi tutte quelle di Abrams, e che dovrebbe ambientarsi in un mondo post-apocalittico. La trama è infatti quella di un gruppo di persone che lotteranno per sopravvivere e ricongiungersi con i propri cari in una Terra dove tutte le forme di energia hanno improvvisamente smesso di funzionare.
Questo progetto, tra l'altro, riavvicina Abrams alla NBC, dopo che si erano allontanati senza troppe sofferenze dopo il flop di Undercovers, andato in onda solo per pochi mesi.
Alla sceneggiatura, intanto, ci penserà Kripke insieme ad Abrams, mentre Bryan Burk provvederà alla produzione con la BAD ROBOT.
Revolution è una via di mezzo tra il videogioco Fallout, Io sono Leggenda, The Postman di Kevin Costner, Flah Forward, The Event e soprattutto Lost. Insomma una miscela che spero esploda in ascolti.
Ho visto il primo episodio e ha superato le mie aspettative..L'ho trovato di buon livello, veloce come trama, bravi gli interpreti che abbiamo visto già in altre importanti serie passate. Scenari apocalittici. 
Buona visione
[/font]
General
Complete name : Revolution.2012.S01E11.HDTV.x264.Sub_Ita-[iDN_CreW].mp4
Format : MPEG-4
Format profile : Base Media
Codec ID : isom
File size : 344 MiB
Duration : 42mn 15s
Overall bit rate : 1 138 Kbps
Encoded date : UTC 2013-03-26 22:39:53
Tagged date : UTC 2013-03-26 22:39:53
Writing application : Yamb 2.1.0.0 [http://yamb.unite-video.com]
Video
Format : AVC
Format/Info : Advanced Video Codec
Format profile : High@L3.1
Format settings, CABAC : Yes
Format settings, ReFrames : 5 frames
Codec ID : avc1
Codec ID/Info : Advanced Video Coding
Duration : 42mn 12s
Bit rate mode : Variable
Bit rate : 1 008 Kbps
Maximum bit rate : 5 018 Kbps
Width : 720 pixels
Height : 404 pixels
Display aspect ratio : 16/9
Frame rate mode : Constant
Frame rate : 23.976 fps
Resolution : 24 bits
Colorimetry : 4:2:0
Scan type : Progressive
Bits/(Pixel*Frame) : 0.145
Stream size : 304 MiB (88%)
Writing library : x264 core 130 r2273 b3065e6
Encoding settings : cabac=1 / ref=5 / deblock=1:1:1 / analyse=0x3:0x133 / me=umh / subme=9 / psy=1 / psy_rd=1.00:0.00 / mixed_ref=1 / me_range=16 / chroma_me=1 / trellis=2 / 8x8dct=1 / cqm=0 / deadzone=21,11 / fast_pskip=1 / chroma_qp_offset=-2 / threads=18 / lookahead_threads=1 / sliced_threads=0 / nr=0 / decimate=1 / interlaced=0 / bluray_compat=0 / constrained_intra=0 / bframes=3 / b_pyramid=2 / b_adapt=2 / b_bias=0 / direct=3 / weightb=1 / open_gop=0 / weightp=2 / keyint=250 / keyint_min=23 / scenecut=40 / intra_refresh=0 / rc_lookahead=60 / rc=crf / mbtree=1 / crf=20.0 / qcomp=0.60 / qpmin=0 / qpmax=69 / qpstep=4 / ip_ratio=1.40 / aq=1:1.00
Encoded date : UTC 2013-03-25 22:11:01
Tagged date : UTC 2013-03-26 22:42:32
Audio
Format : AAC
Format/Info : Advanced Audio Codec
Format version : Version 4
Format profile : LC
Format settings, SBR : No
Codec ID : 40
Duration : 42mn 12s
Bit rate mode : Variable
Bit rate : 127 Kbps
Maximum bit rate : 163 Kbps
Channel(s) : 2 channels
Channel positions : L R
Sampling rate : 48.0 KHz
Resolution : 16 bits
Stream size : 38.3 MiB (11%)
Encoded date : UTC 2013-03-26 22:42:27
Tagged date : UTC 2013-03-26 22:42:32
Text
Format : Timed text
Codec ID : tx3g
Duration : 42mn 15s
Bit rate mode : Variable
Bit rate : 51 bps
Stream size : 15.9 KiB (0%)
Encoded date : UTC 2013-03-26 22:42:31
Tagged date : UTC 2013-03-26 22:42:32Faccio presente che su questo torrent l'episodio 14 non contiene all interno del MP4 i sub, ma sono esterni mentre nell episodio 15, i sub sono contenuti nel MP4 stesso. Questo perchè per il 14 non sono riuscita a contenerli e non me ne spiego il motivo, e per non far passare più tempo dall'uscita dell'episodio ho deciso di lasciarlo così. 
Ringrazio Blog.it e Wiki per le immagini e informazioni e il grande gruppo LOL 
						
Revolution.2012.S01E14-15.HDTV.x264.Sub_Ita-[iDN_CreW]/Revolution.2012.S01E14.HDTV.x264.Sub_Ita-[iDN_CreW].mp4 328.696 MB
Revolution.2012.S01E14-15.HDTV.x264.Sub_Ita-[iDN_CreW]/Revolution.2012.S01E15.HDTV.x264.Sub_Ita-[iDN_CreW].mp4 310.559 MB
Revolution.2012.S01E14-15.HDTV.x264.Sub_Ita-[iDN_CreW]/Revolution.s01e14.sub.itasa.srt 36.212 KB
Gathering some info...

Register and log in Isohunt and see no captcha anymore!

4000 symbols left
Hash b99ff2456fd1d38535c028e08c728f2def711d17

Related torrents for "Revolution.2012.S01E14-15.HDTV.x264.Sub_Ita-[iDN_CreW]"

Torrent search:

season 01 x264 hdtv 2012