imdb
rating

4.6
Dead Mine

Dead Mine (2012)

Action, Horror

Full description

Dead.Mine.2012.WEBRip XViD juggs

Size 748.592 MB   207 seeders     Added 2013-05-03 00:59:36

Stream torrent
Starting‥ You need BitLord! Get it from BitLord.com
To download or stream you need BitLord. Visit them at BitLord.com
							
Source : FooKas(Thanks)http://www.imdb.com/title/tt2171847/
Format : AVI
Format/Info : Audio Video Interleave
File size : 699 MiB
Duration : 1h 31mn
Overall bit rate : 1 068 Kbps
Writing library : VirtualDub build 32842/release
Video
ID : 0
Format : MPEG-4 Visual
Format profile : Advanced Simple@L5
Format settings, BVOP : 2
Format settings, QPel : No
Format settings, GMC : No warppoints
Format settings, Matrix : Default (H.263)
Muxing mode : Packed bitstream
Codec ID : XVID
Codec ID/Hint : XviD
Duration : 1h 31mn
Bit rate : 930 Kbps
Width : 640 pixels
Height : 272 pixels
Display aspect ratio : 2.35:1
Frame rate : 23.976 fps
Color space : YUV
Chroma subsampling : 4:2:0
Bit depth : 8 bits
Scan type : Progressive
Compression mode : Lossy
Bits/(Pixel*Frame) : 0.223
Stream size : 609 MiB (87%)
Writing library : XviD 1.2.0.dev47 (UTC 2006-11-01)
Audio
ID : 1
Format : MPEG Audio
Format version : Version 1
Format profile : Layer 3
Codec ID : 55
Codec ID/Hint : MP3
Duration : 1h 31mn
Bit rate mode : Constant
Bit rate : 128 Kbps
Channel(s) : 2 channels
Sampling rate : 44.1 KHz
Compression mode : Lossy
Stream size : 83.8 MiB (12%)
Alignment : Split accross interleaves
Interleave, duration : 42 ms (1.00 video frame)
Interleave, preload duration : 500 ms
Writing library : LAME3.99r
Encoding settings : -m s -V 4 -q 3 -lowpass 17 -b 128
Plot
The legend of Yamashita's Gold lures a treasure hunter and his group deep into the Indonesian jungle. Once they are trapped in an abandoned World War II Japanese bunker, they face the terrifying reality that the only way out is to go further in.
[video=http://www.youtube.com/watch?v=Qd5yHDlQuCQ]
						
Dead.Mine.2012.WEBRip XViD juggs/Dead.Mine.2012.WEBRip XViD juggs.avi 732.558 MB
Dead.Mine.2012.WEBRip XViD juggs/Torrent Downloaded From ExtraTorrent.com.txt 339 B
Dead.Mine.2012.WEBRip XViD juggs/sample.avi 16.034 MB
Gathering some info...

Register and log in Isohunt and see no captcha anymore!

4000 symbols left
Hash a2a157b383aa0454c8f497a1b97dfe3e00b24d70

Related torrents for "Dead.Mine.2012.WEBRip XViD juggs"

Torrent search:

2012 web-rip