imdb
rating

6.2
The Future

The Future (2011)

Comedy, Drama

Full description
quality   hdtv hd screener dvdrip bd x264 dvdr

Ace Hood Ft. Future & Rick Ross - Bugatti [Explicit] 720p [Sbyky].mp4

Size 101.092 MB   0 seeders     Added 2013-05-03 01:58:38

Stream torrent
Starting‥ You need BitLord! Get it from 1BitLord.com
To download or stream you need BitLord. Visit them at BitLord.com
							
General
Complete name : Ace Hood Ft. Future & Rick Ross - Bugatti [Explicit] 720p [Sbyky].mp4
Format : MPEG-4
Format profile : Base Media / Version 2
Codec ID : mp42
File size : 96.4 MiB
Duration : 5mn 4s
Overall bit rate mode : Variable
Overall bit rate : 2 654 Kbps
Encoded date : UTC 2013-04-04 02:34:52
Tagged date : UTC 2013-04-04 02:34:52
Video
ID : 1
Format : AVC
Format/Info : Advanced Video Codec
Format profile : High@L3.1
Format settings, CABAC : Yes
Format settings, ReFrames : 1 frame
Format settings, GOP : M=1, N=60
Codec ID : avc1
Codec ID/Info : Advanced Video Coding
Duration : 5mn 4s
Bit rate : 2 460 Kbps
Maximum bit rate : 6 289 Kbps
Width : 1 280 pixels
Height : 720 pixels
Display aspect ratio : 16:9
Frame rate mode : Constant
Frame rate : 23.976 fps
Color space : YUV
Chroma subsampling : 4:2:0
Bit depth : 8 bits
Scan type : Progressive
Bits/(Pixel*Frame) : 0.111
Stream size : 89.3 MiB (93%)
Tagged date : UTC 2013-04-04 02:34:59
Audio
ID : 2
Format : AAC
Format/Info : Advanced Audio Codec
Format profile : LC
Codec ID : 40
Duration : 5mn 4s
Bit rate mode : Variable
Bit rate : 192 Kbps
Maximum bit rate : 203 Kbps
Channel(s) : 2 channels
Channel positions : Front: L R
Sampling rate : 44.1 KHz
Compression mode : Lossy
Stream size : 6.97 MiB (7%)
Title : IsoMedia File Produced by Google, 5-11-2011
Encoded date : UTC 2013-04-04 02:34:57
Tagged date : UTC 2013-04-04 02:34:59
Shared By Sbyky
Ace Hood Ft. Future & Rick Ross - Bugatti [Explicit] 720p [Sbyky].mp4 101.092 MB
Gathering some info...

Register and log in Isohunt and see no captcha anymore!

4000 symbols left
Hash 111942e3cfec98636158beb0edf498dcc97acf44

Related torrents for "Ace Hood Ft. Future & Rick Ross - Bugatti [Explicit] 720p [Sbyky].mp4"

Torrent search:

hd