Submission 2013 DVDrip Xvid Ac3 MiLLENiUM

Size 1.932 GB   18 seeders     Added 2013-05-03 02:34:34

Stream torrent
Starting‚Ä• You need BitLord! Get it from BitLord.com
To download or stream you need BitLord. Visit them at BitLord.com
General
Complete name                            : Submission 2013  DVDrip Xvid Ac3 MiLLENiUM.avi
Source                                   : DVDR L-S [THANKS]
Format                                   : AVI
Format/Info                              : Audio Video Interleave
File size                                : 1.73 GiB
Duration                                 : 1h 54mn
Overall bit rate                         : 2 153 Kbps
Writing application                      : VirtualDubMod 1.5.10.2 (build 2540/release)
Writing library                          : VirtualDubMod build 2540/release

Video
ID                                       : 0
Format                                   : MPEG-4 Visual
Format profile                           : Advanced Simple@L5
Format settings, BVOP                    : 2
Format settings, QPel                    : No
Format settings, GMC                     : No warppoints
Format settings, Matrix                  : Default (H.263)
Muxing mode                              : Packed bitstream
Codec ID                                 : XVID
Codec ID/Hint                            : XviD
Duration                                 : 1h 54mn
Bit rate                                 : 1 695 Kbps
Width                                    : 720 pixels
Height                                   : 352 pixels
Display aspect ratio                     : 2.045
Frame rate                               : 25.000 fps
Color space                              : YUV
Chroma subsampling                       : 4:2:0
Bit depth                                : 8 bits
Scan type                                : Progressive
Compression mode                         : Lossy
Bits/(Pixel*Frame)                       : 0.268
Stream size                              : 1.36 GiB (79%)
Writing library                          : XviD 64

Audio
ID                                       : 1
Format                                   : AC-3
Format/Info                              : Audio Coding 3
Mode extension                           : CM (complete main)
Codec ID                                 : 2000
Duration                                 : 1h 54mn
Bit rate mode                            : Constant
Bit rate                                 : 448 Kbps
Channel(s)                               : 6 channels
Channel positions                        : Front: L C R, Side: L R, LFE
Sampling rate                            : 48.0 KHz
Bit depth                                : 16 bits
Compression mode                         : Lossy
Stream size                              : 368 MiB (21%)
Alignment                                : Split accross interleaves
Interleave, duration                     : 40 ms (1.00 video frame)
Interleave, preload duration             : 500 ms

Screens: 
image 
image 
image 
image 
image		
Submission 2013 DVDrip Xvid Ac3 MiLLENiUM/Submission 2013 DVDrip Xvid Ac3 MiLLENiUM.avi_snapshot_00.51.59_[2013.04.30_06.02.31].jpg 49.391 KB
Submission 2013 DVDrip Xvid Ac3 MiLLENiUM/Submission 2013 DVDrip Xvid Ac3 MiLLENiUM.avi_snapshot_00.40.53_[2013.04.30_06.01.59].jpg 29.149 KB
Submission 2013 DVDrip Xvid Ac3 MiLLENiUM/Submission 2013 DVDrip Xvid Ac3 MiLLENiUM.avi_thumbs_[2013.04.30_06.02.38].jpg 152.636 KB
Gathering some info...

Register and log in Isohunt and see no captcha anymore!

4000 symbols left
Hash e174021e53e460918ee8b7161608364e62b3f527

Related torrents for "Submission 2013 DVDrip Xvid Ac3 MiLLENiUM"

Torrent search:

dvdrip 2013