imdb
rating

7.2
Bird

Bird (1988)

Drama, Music

Full description
quality   dvdrip hdtv hd x264

Birdmic 2,The birding-)..mkv

Size 1.933 GB   0 seeders     Added 2013-05-03 04:08:40

Stream torrent
Starting‥ You need BitLord! Get it from 1BitLord.com
To download or stream you need BitLord. Visit them at BitLord.com
Overkill 1987
Overkill (1987)
Ratings: 3.2/10
Action | Crime | Thriller
15 December 1987 (West Germany)
Director: Ulli Lommel
Writers: Ulli Lommel, David Scott Kroes
Stars: Steve Rally, John Nishio, Laura Burkett
Also Known As: Los Angeles Vice, Overkill - Inferno der Angst
Taglines: The body count is overwhelming



Code:

Format                                   : MPEG-4
Format profile                           : Base Media
Codec ID                                 : isom
File size                                : 1.47 GiB
Duration                                 : 1h 21mn
Overall bit rate mode                    : Variable
Overall bit rate                         : 2 592 Kbps
Encoded date                             : UTC 2013-05-02 04:59:59

Video
ID                                       : 1
Format                                   : AVC
Format/Info                              : Advanced Video Codec
Codec ID                                 : avc1
Codec ID/Info                            : Advanced Video Coding
Duration                                 : 1h 21mn
Source duration                          : 1h 21mn
Bit rate mode                            : Variable
Bit rate                                 : 2 460 Kbps
Maximum bit rate                         : 5 000 Kbps
Width                                    : 640 pixels
Height                                   : 480 pixels
Display aspect ratio                     : 4:3
Frame rate                               : 29.970 fps
Color space                              : YUV
Chroma subsampling                       : 4:2:0
Bit depth                                : 8 bits
Scan type                                : Progressive
Bits/(Pixel*Frame)                       : 0.267
Stream size                              : 1.40 GiB (95%)
Source stream size                       : 1.40 GiB (95%)
Language                                 : English

Audio
ID                                       : 2
Format                                   : AAC
Format/Info                              : Advanced Audio Codec
Format profile                           : LC
Codec ID                                 : 40
Duration                                 : 1h 21mn
Source duration                          : 1h 21mn
Bit rate mode                            : Variable
Bit rate                                 : 126 Kbps
Maximum bit rate                         : 2 672 Mbps
Channel(s)                               : 2 channels
Channel positions                        : Front: L R
Sampling rate                            : 44.1 KHz
Compression mode                         : Lossy
Stream size                              : 73.0 MiB (5%)
Source stream size                       : 73.0 MiB (5%)
Language                                 : English





Storyline
Violence, murder and terror become everyday occurrences in Little Tokyo. The tiny Japanese American community is taken over in an iron-fisted reign of terror by the infamous Yakuza organization. Yakuza mobsters extort money from the residents for the privilege of staying alive. One maverick detective and the brother of a dead Yakuza victim form their own counter death squad to fight the Yakuza. The detective and the surviving brother resort to every from of counter-terrorism, every weapon available, to stop the sinister Yakuza. Written by castmember
Screenshots
Birdmic 2,The birding-)..mkv 1.933 GB
Gathering some info...

Register and log in Isohunt and see no captcha anymore!

4000 symbols left
Hash d39ece85b1aad47042a815da30b6850b17e34dbd

Related torrents for "Birdmic 2,The birding-)..mkv"