imdb
rating

6.4
The Kiss

The Kiss (2004)

Drama

Full description
quality   dvdrip x264 fullhd hd

Kelly Rowland - Kisses Down Low [Music Video] 1080p [Sbyky].mp4

Size 173.643 MB   13 seeders     Added 2013-05-03 10:20:49

Stream torrent
Starting‥ You need BitLord! Get it from BitLord.com
To download or stream you need BitLord. Visit them at BitLord.com
							
General
Complete name : Kelly Rowland - Kisses Down Low [Music Video] 1080p [Sbyky].mp4
Format : MPEG-4
Format profile : Base Media / Version 2
Codec ID : mp42
File size : 166 MiB
Duration : 4mn 24s
Overall bit rate mode : Variable
Overall bit rate : 5 246 Kbps
Encoded date : UTC 2013-03-08 15:29:37
Tagged date : UTC 2013-03-08 15:29:37
Video
ID : 1
Format : AVC
Format/Info : Advanced Video Codec
Format profile : High@L4.0
Format settings, CABAC : Yes
Format settings, ReFrames : 1 frame
Format settings, GOP : M=1, N=48
Codec ID : avc1
Codec ID/Info : Advanced Video Coding
Duration : 4mn 24s
Bit rate : 5 051 Kbps
Maximum bit rate : 9 575 Kbps
Width : 1 920 pixels
Height : 1 080 pixels
Display aspect ratio : 16:9
Frame rate mode : Constant
Frame rate : 23.976 fps
Color space : YUV
Chroma subsampling : 4:2:0
Bit depth : 8 bits
Scan type : Progressive
Bits/(Pixel*Frame) : 0.102
Stream size : 159 MiB (96%)
Tagged date : UTC 2013-03-08 15:29:48
Audio
ID : 2
Format : AAC
Format/Info : Advanced Audio Codec
Format profile : LC
Codec ID : 40
Duration : 4mn 24s
Bit rate mode : Variable
Bit rate : 192 Kbps
Maximum bit rate : 202 Kbps
Channel(s) : 2 channels
Channel positions : Front: L R
Sampling rate : 44.1 KHz
Compression mode : Lossy
Stream size : 6.06 MiB (4%)
Title : IsoMedia File Produced by Google, 5-11-2011
Encoded date : UTC 2013-03-08 15:29:46
Tagged date : UTC 2013-03-08 15:29:48
Shared By Sbyky
Kelly Rowland - Kisses Down Low [Music Video] 1080p [Sbyky].mp4 173.643 MB
Gathering some info...

Register and log in Isohunt and see no captcha anymore!

4000 symbols left
Hash 8a823e0fe5a974e63108f35285bdce67b90e907c

Related torrents for "Kelly Rowland - Kisses Down Low [Music Video] 1080p [Sbyky].mp4"

Torrent search:

fullhd