imdb
rating

6.4
The Kiss

The Kiss (2004)

Drama

Full description
quality   dvdrip x264 fullhd hd

Kelly Rowland - Kisses Down Low [Music Video] 720p [Sbyky].mp4

Size 86.937 MB   0 seeders     Added 2013-05-03 10:20:50

Stream torrent
Starting‥ You need BitLord! Get it from 1BitLord.com
To download or stream you need BitLord. Visit them at BitLord.com
							
General
Complete name : Kelly Rowland - Kisses Down Low [Music Video] 720p [Sbyky].mp4
Format : MPEG-4
Format profile : Base Media / Version 2
Codec ID : mp42
File size : 82.9 MiB
Duration : 4mn 24s
Overall bit rate mode : Variable
Overall bit rate : 2 626 Kbps
Encoded date : UTC 2013-03-08 15:29:05
Tagged date : UTC 2013-03-08 15:29:05
Video
ID : 1
Format : AVC
Format/Info : Advanced Video Codec
Format profile : High@L3.1
Format settings, CABAC : Yes
Format settings, ReFrames : 1 frame
Format settings, GOP : M=1, N=60
Codec ID : avc1
Codec ID/Info : Advanced Video Coding
Duration : 4mn 24s
Bit rate : 2 432 Kbps
Maximum bit rate : 5 059 Kbps
Width : 1 280 pixels
Height : 720 pixels
Display aspect ratio : 16:9
Frame rate mode : Constant
Frame rate : 23.976 fps
Color space : YUV
Chroma subsampling : 4:2:0
Bit depth : 8 bits
Scan type : Progressive
Bits/(Pixel*Frame) : 0.110
Stream size : 76.8 MiB (93%)
Tagged date : UTC 2013-03-08 15:29:08
Audio
ID : 2
Format : AAC
Format/Info : Advanced Audio Codec
Format profile : LC
Codec ID : 40
Duration : 4mn 24s
Bit rate mode : Variable
Bit rate : 192 Kbps
Maximum bit rate : 202 Kbps
Channel(s) : 2 channels
Channel positions : Front: L R
Sampling rate : 44.1 KHz
Compression mode : Lossy
Stream size : 6.06 MiB (7%)
Title : IsoMedia File Produced by Google, 5-11-2011
Encoded date : UTC 2013-03-08 15:29:07
Tagged date : UTC 2013-03-08 15:29:08
Shared By Sbyky
Kelly Rowland - Kisses Down Low [Music Video] 720p [Sbyky].mp4 86.937 MB
Gathering some info...

Register and log in Isohunt and see no captcha anymore!

4000 symbols left
Hash 64ce9c077b13af9d0ab9b2279bad0da02111b08a

Related torrents for "Kelly Rowland - Kisses Down Low [Music Video] 720p [Sbyky].mp4"

Torrent search:

hd