Bruno Mars - When I Was Your Man [Music Video] 1080p [Sbyky].mp4 Verified

Size 96.443 MB   0 seeders     Added 2013-05-03 12:50:26

Stream torrent
Starting‥ You need BitLord! Get it from 1BitLord.com
To download or stream you need BitLord. Visit them at BitLord.com
General
Complete name : Bruno Mars - When I Was Your Man [Music Video] 1080p [Sbyky].mp4
Format : MPEG-4
Format profile : Base Media / Version 2
Codec ID : mp42
File size : 92.0 MiB
Duration : 3mn 57s
Overall bit rate mode : Variable
Overall bit rate : 3 251 Kbps
Encoded date : UTC 2013-04-08 10:21:16
Tagged date : UTC 2013-04-08 10:21:16
Video
ID : 1
Format : AVC
Format/Info : Advanced Video Codec
Format profile : [email protected]
/*  */

Format settings, CABAC : Yes
Format settings, ReFrames : 1 frame
Codec ID : avc1
Codec ID/Info : Advanced Video Coding
Duration : 3mn 57s
Bit rate : 3 057 Kbps
Maximum bit rate : 5 830 Kbps
Width : 1 920 pixels
Height : 1 080 pixels
Display aspect ratio : 16:9
Frame rate mode : Constant
Frame rate : 23.976 fps
Color space : YUV
Chroma subsampling : 4:2:0
Bit depth : 8 bits
Scan type : Progressive
Bits/(Pixel*Frame) : 0.061
Stream size : 86.5 MiB (94%)
Tagged date : UTC 2013-04-08 10:21:51
Audio
ID : 2
Format : AAC
Format/Info : Advanced Audio Codec
Format profile : LC
Codec ID : 40
Duration : 3mn 57s
Bit rate mode : Variable
Bit rate : 192 Kbps
Maximum bit rate : 203 Kbps
Channel(s) : 2 channels
Channel positions : Front: L R
Sampling rate : 44.1 KHz
Compression mode : Lossy
Stream size : 5.43 MiB (6%)
Title : IsoMedia File Produced by Google, 5-11-2011
Encoded date : UTC 2013-04-08 10:21:40
Tagged date : UTC 2013-04-08 10:21:51
Shared By Sbyky
Bruno Mars - When I Was Your Man [Music Video] 1080p [Sbyky].mp4 96.443 MB
Gathering some info...

Register and log in Isohunt and see no captcha anymore!

4000 symbols left
Hash f4001eeb1d06ee3dbf0aa2fdf8f49a016af8acb4

Related torrents for "Bruno Mars - When I Was Your Man [Music Video] 1080p [Sbyky].mp4"