Justin Timberlake: Live at iTunes Festival

Justin Timberlake: Live at iTunes Festival (2013)

Music

Full description
quality   fullhd hdtv x264 hd bd

Justin Timberlake - Mirrors [Music Video] 1080p [Sbyky].mp4

Size 167.42 MB   60 seeders     Added 2013-05-03 12:59:37

Stream torrent
Starting‥ You need BitLord! Get it from BitLord.com
To download or stream you need BitLord. Visit them at BitLord.com
							
General
Complete name : Justin Timberlake - Mirrors [Music Video] 1080p [Sbyky].mp4
Format : MPEG-4
Format profile : Base Media / Version 2
Codec ID : mp42
File size : 160 MiB
Duration : 8mn 20s
Overall bit rate mode : Variable
Overall bit rate : 2 677 Kbps
Encoded date : UTC 2013-04-08 13:54:00
Tagged date : UTC 2013-04-08 13:54:00
Video
ID : 1
Format : AVC
Format/Info : Advanced Video Codec
Format profile : High@L4.0
Format settings, CABAC : Yes
Format settings, ReFrames : 1 frame
Codec ID : avc1
Codec ID/Info : Advanced Video Coding
Duration : 8mn 20s
Bit rate : 2 482 Kbps
Maximum bit rate : 5 898 Kbps
Width : 1 920 pixels
Height : 1 080 pixels
Display aspect ratio : 16:9
Frame rate mode : Constant
Frame rate : 23.976 fps
Color space : YUV
Chroma subsampling : 4:2:0
Bit depth : 8 bits
Scan type : Progressive
Bits/(Pixel*Frame) : 0.050
Stream size : 148 MiB (93%)
Tagged date : UTC 2013-04-08 13:54:11
Audio
ID : 2
Format : AAC
Format/Info : Advanced Audio Codec
Format profile : LC
Codec ID : 40
Duration : 8mn 20s
Bit rate mode : Variable
Bit rate : 192 Kbps
Maximum bit rate : 201 Kbps
Channel(s) : 2 channels
Channel positions : Front: L R
Sampling rate : 44.1 KHz
Compression mode : Lossy
Stream size : 11.5 MiB (7%)
Title : IsoMedia File Produced by Google, 5-11-2011
Encoded date : UTC 2013-04-08 13:54:08
Tagged date : UTC 2013-04-08 13:54:11
Shared By Sbyky
Justin Timberlake - Mirrors [Music Video] 1080p [Sbyky].mp4 167.42 MB
Gathering some info...

Register and log in Isohunt and see no captcha anymore!

4000 symbols left
Hash d015c674ee94524b5cf02a5e3c2c8c0de0676261

Related torrents for "Justin Timberlake - Mirrors [Music Video] 1080p [Sbyky].mp4"

Torrent search:

fullhd