imdb
rating

7.8
Kung Fu Hustle

Kung Fu Hustle (2004)

Action, Comedy, Crime, Fantasy

Full description
quality   bd x264 hd dvdrip fullhd

Kung Fu Hustle (2004)-alE13

Size 3.172 GB   8 seeders     Added 2013-05-03 14:21:34

Stream torrent
Starting‥ You need BitLord! Get it from BitLord.com
To download or stream you need BitLord. Visit them at BitLord.com
							
produkcja: Chiny, Hongkong
gatunek: Fantasy, Komedia, Sensacyjny, Akcja
data premiery: 2004-09-14 (Świat)
reżyseria: Stephen Chow
scenariusz: Stephen Chow, Kan-Cheung Tsang
zdjęcia: Hang-Sang Poon
muzyka: Stephen Chow, Raymond Wong
czas trwania: 01:39:28
opis:
In Shanghai, China in the 1940s, a wannabe gangster aspires to join the 
notorious "Axe Gang" while residents of a housing complex exhibit extraordinary 
powers in defending their turf. 
Zwariowana, oryginalna i błyskotliwa komedia. Drobny złodziejaszek Sing 
(Stephen Chow - Shaolin Soccer) marzy, by zostać bezwzględnym gangsterem. 
Na osiedlu znajdującym się pod kontrolą mafii próbuje wyłudzić pieniądze 
od miejscowych, którzy okazują się zakamuflowanymi mistrzami kung fu. 
Działania Singa zwracają na niego uwagę przestępców znanych jako Axe Gang 
co prowadzi w efekcie do serii zaskakujących wydarzeń.
obsada:
Stephen Chow: Sing
Xiaogang Feng: Crocodile Gang Boss
Wah Yuen: Landlord
Zhi Hua Dong: Donut
Kwok Kuen Chan: Brat Sum
dane techniczne:
Kung Fu Hustle (2004)-alE13.mkv
Format : Matroska
Format version : Version 4 / Version 2
File size : 2.93 GiB
Duration : 1h 39mn
Overall bit rate : 4 211 Kbps
Movie name : Kung Fu Hustle (2004)-alE13_AT-TEAM
Encoded date : UTC 2013-05-03 06:46:54
Writing application : mkvmerge v6.1.0 
Writing library : libebml v1.3.0 + libmatroska v1.4.0
Video
ID : 1
Format : AVC
Format/Info : Advanced Video Codec
Format profile : Main@L3.1
Format settings, CABAC : Yes
Format settings, ReFrames : 2 frames
Codec ID : V_MPEG4/ISO/AVC
Duration : 1h 39mn
Bit rate : 3 500 Kbps
Width : 1 280 pixels
Height : 536 pixels
Display aspect ratio : 2.40:1
Frame rate mode : Constant
Frame rate : 23.976 fps
Color space : YUV
Chroma subsampling : 4:2:0
Bit depth : 8 bits
Scan type : Progressive
Bits/(Pixel*Frame) : 0.213
Stream size : 2.34 GiB (80%)
Writing library : x264 core 112 r1834 a51816a
Audio
ID : 2
Format : DTS
Format/Info : Digital Theater Systems
Mode : 16
Format settings, Endianness : Big
Codec ID : A_DTS
Duration : 1h 39mn
Bit rate mode : Constant
Bit rate : 755 Kbps
Channel(s) : 6 channels
Channel positions : Front: L C R, Side: L R, LFE
Sampling rate : 48.0 KHz
Bit depth : 16 bits
Compression mode : Lossy
Stream size : 537 MiB (18%)
Title : DTS 5.1 @ 768 kbps (cantonese)
Language : Chinese
Text #1
ID : 3
Format : ASS
Codec ID : S_TEXT/ASS
Codec ID/Info : Advanced Sub Station Alpha
Compression mode : Lossless
Title : Kung Fu Hustle (2004)-alE13_eng
Language : English
Text #2
ID : 4
Format : VobSub
Muxing mode : zlib
Codec ID : S_VOBSUB
Codec ID/Info : The same subtitle format used on DVDs
Language : Polish
Menu
00:00:00.000 : en:01.Start
00:03:03.973 : en:02.The Axe Gang
00:07:12.624 : en:03.Pig Sty Alley
00:12:30.627 : en:04.Sing
00:16:50.769 : en:05."Call For Help!"
00:21:29.153 : en:06.Three Heroes
00:24:47.863 : en:07.Sing's Special Skill
00:25:35.464 : en:08.To the Rescue
00:33:35.933 : en:09.Just One Kill
00:36:48.067 : en:10.Quick Healer
00:39:10.771 : en:11.Assassins
00:42:37.313 : en:12.One Down
00:43:39.843 : en:13.Super Tailor
00:49:11.849 : en:14.Evened Odds
00:51:27.849 : en:15.The Lion's Roar
00:52:29.182 : en:16.A Warning for Brother Sum
00:54:15.104 : en:17.A Broken Promise
00:56:25.302 : en:18.Mute Memory
01:02:05.793 : en:19.Deep in the Asylum
01:05:19.752 : en:20.The Beast
01:09:01.764 : en:21.Paris & Helen of Troy
01:14:07.568 : en:22.Amplification
01:15:37.235 : en:23.Sing's True Character
01:20:24.457 : en:24.Chrysalis
01:21:37.849 : en:25.His Kung Fu is Strong
01:25:44.707 : en:26.Sing vs. the Beast
01:29:16.963 : en:27.The Buddhist Palm
01:34:29.640 : en:28.New Starts & Lollipops 
						
Kung Fu Hustle (2004)-alE13/sub/Kung Fu Hustle (2004)-alE13_pl.sub 3.299 MB
Kung Fu Hustle (2004)-alE13/sub/Kung Fu Hustle (2004)-alE13_pl.srt 44.608 KB
Kung Fu Hustle (2004)-alE13/sub/Kung Fu Hustle (2004)-alE13_pl.idx 28.47 KB
Gathering some info...

Register and log in Isohunt and see no captcha anymore!

4000 symbols left
Hash 73a342916be409bcbb07783e74d0a2f9800787a8

Related torrents for "Kung Fu Hustle (2004)-alE13"

Torrent search:

2004