imdb
rating

6.2
Parker

Parker (2013)

Action, Crime

Full description
quality   dvdrip hd bd telesync cam x264

Parker 2013 BRRiP x264 AC3-OFFLiNE

Size 2.416 GB   0 seeders     Added 2013-05-03 15:05:38

Stream torrent
Starting‥ You need BitLord! Get it from 1BitLord.com
To download or stream you need BitLord. Visit them at BitLord.com
							
A thief with a unique code of professional ethics is double-crossed by his crew and left for dead. Assuming a new disguise and forming an unlikely alliance with a woman on the inside, he looks to hijack the score of the crew's latest heist. 
Director:
 Taylor Hackford 
Writers:
 John J. McLaughlin (screenplay), Donald E. Westlake (novel) 
Stars:
 Jason Statham, Jennifer Lopez, Michael Chiklis 
Genres:
 Action | Crime | Thriller 
Country:
 USA 
Language:
 English 
Parker 2013 BRRiP x264 AC3-OFFLiNE
 iMDB http://www.imdb.com/title/tt1904996
 Source 720p iMFAMOUS - MANY THANKX
 Media Info
 Parker 2013 BRRiP x264 AC3-OFFLiNE.mp4
 Format : MPEG-4
 Format profile : Base Media
 Codec ID : isom
 File size : 2.25 GiB
 Duration : 1h 58mn
 Overall bit rate mode : Variable
 Overall bit rate : 2 714 Kbps
 Encoded date : UTC 2013-05-03 03:02:49
 Tagged date : UTC 2013-05-03 03:02:49
 Video
 ID : 1
 Format : AVC
 Format/Info : Advanced Video Codec
 Format profile : High@L4.1
 Format settings, CABAC : Yes
 Format settings, ReFrames : 3 frames
 Codec ID : avc1
 Codec ID/Info : Advanced Video Coding
 Duration : 1h 58mn
 Bit rate mode : Variable
 Bit rate : 2 328 Kbps
 Maximum bit rate : 40.0 Mbps
 Width : 720 pixels
 Height : 304 pixels
 Display aspect ratio : 2.35:1
 Frame rate mode : Constant
 Frame rate : 23.976 fps
 Color space : YUV
 Chroma subsampling : 4:2:0
 Bit depth : 8 bits
 Scan type : Progressive
 Bits/(Pixel*Frame) : 0.444
 Stream size : 1.93 GiB (86%)
 Title : Parker 2013 BRRiP x264 AC3-OFFLiNE
 Writing library : x264 core 132 r2309 3b1f1f7
 Audio
 ID : 2
 Format : AC-3
 Format/Info : Audio Coding 3
 Mode extension : CM (complete main)
 Format settings, Endianness : Big
 Codec ID : ac-3
 Duration : 1h 58mn
 Bit rate mode : Constant
 Bit rate : 384 Kbps
 Channel(s) : 6 channels
 Channel positions : Front: L C R, Side: L R, LFE
 Sampling rate : 48.0 KHz
 Bit depth : 16 bits
 Compression mode : Lossy
 Stream size : 326 MiB (14%)
 Title : 5.1
 Language : English
						
Parker 2013 BRRiP x264 AC3-OFFLiNE/Parker 2013 BRRiP x264 AC3-OFFLiNE.mp4 2.416 GB
Parker 2013 BRRiP x264 AC3-OFFLiNE/Parker 2013 BRRiP x264 AC3-OFFLiNE.nfo 7.264 KB
Parker 2013 BRRiP x264 AC3-OFFLiNE/Torrent Downloaded From ExtraTorrent.com.txt 353 B
Gathering some info...

Register and log in Isohunt and see no captcha anymore!

4000 symbols left
Hash c7500138fadbba6a9adbae435a40cd6b5f409d08

Related torrents for "Parker 2013 BRRiP x264 AC3-OFFLiNE"

Torrent search:

x264 bd 2013