imdb
rating

6.2
Shree

Shree (2013)

Full description
quality   dvdrip web-rip x264 fullhd hd bd

Shree 2013 Hindi Movies HDDvDRip Xvid Sample Included ~ rDX

Size 744.955 MB   43 seeders     Added 2013-05-03 17:51:51

Stream torrent
Starting‥ You need BitLord! Get it from BitLord.com
To download or stream you need BitLord. Visit them at BitLord.com
Shree 2013 Hindi Movies HDDvDRip Xvid Sample Included ~ rDX
Screen Shots :http://myimghosting.serveftp.com/13/Shree.htmlhttp://myimghost.cwahi.net/Shree.html
Format : AVI
Format/Info : Audio Video Interleave
File size : 698 MiB
Duration : 1h 50mn
Overall bit rate mode : Variable
Overall bit rate : 884 Kbps
Writing application : VirtualDubMod 1.5.10.2 (build 2540/release)
Writing library : VirtualDubMod build 2540/release
Video
ID : 0
Format : MPEG-4 Visual
Format profile : Advanced Simple@L5
Format settings, BVOP : 1
Format settings, QPel : No
Format settings, GMC : No warppoints
Format settings, Matrix : Default (H.263)
Codec ID : XVID
Codec ID/Hint : XviD
Duration : 1h 50mn
Bit rate : 784 Kbps
Width : 640 pixels
Height : 272 pixels
Display aspect ratio : 2.35:1
Frame rate : 24.000 fps
Color space : YUV
Chroma subsampling : 4:2:0
Bit depth : 8 bits
Scan type : Progressive
Compression mode : Lossy
Bits/(Pixel*Frame) : 0.188
Stream size : 618 MiB (89%)
Writing library : XviD 1.2.1 (UTC 2008-12-04)
Audio
ID : 1
Format : MPEG Audio
Format version : Version 1
Format profile : Layer 3
Mode : Joint stereo
Mode extension : MS Stereo
Codec ID : 55
Codec ID/Hint : MP3
Duration : 1h 50mn
Bit rate mode : Variable
Bit rate : 90.7 Kbps
Nominal bit rate : 96.0 Kbps
Channel(s) : 2 channels
Sampling rate : 32.0 KHz
Compression mode : Lossy
Stream size : 71.6 MiB (10%)
Alignment : Aligned on interleaves
Interleave, duration : 36 ms (0.86 video frame)
Interleave, preload duration : 216 ms
Writing library : LAME3.99r
Encoding settings : -m j -V 4 -q 2 -lowpass 15.1 --a
Shree 2013 Hindi Movies HDDvDRip Xvid Sample Included ~ rDX/Shree 2013 Hindi Movies HDDvDRip Xvid ~ rDX.avi 731.802 MB
Shree 2013 Hindi Movies HDDvDRip Xvid Sample Included ~ rDX/Sample ~ Shree 2013 Hindi Movies HDDvDRip Xvid ~ rDX.avi 13.154 MB
Gathering some info...

Register and log in Isohunt and see no captcha anymore!

4000 symbols left
Hash a8ea7adaf240ccf21ec169686168baf3052bfa05

Related torrents for "Shree 2013 Hindi Movies HDDvDRip Xvid Sample Included ~ rDX"

Torrent search:

hindi 2013