Naya.Daur.1957.DVDRip.X264.Ac3.RRG.DADA.DBBians.Com Verified

Size 851.959 MB   0 seeders     Added 2013-05-03 19:39:35

Stream torrent
Starting‚Ä• You need BitLord! Get it from BitLord.com
To download or stream you need BitLord. Visit them at BitLord.com
							
Click To Enlarge 
-: Cover :-
-: Screens :-                  
-: Info :-
General
Format : Matroska
Format version : Version 2
File size : 811 MiB
Duration : 2h 45mn
Overall bit rate : 687 Kbps
Writing application : HandBrake 0.9.8
Writing library : libmkv 0.6.5
Video
ID : 1
Format : AVC
Format/Info : Advanced Video Codec
Format profile : High@L3.0
Format settings, CABAC : Yes
Format settings, ReFrames : 4 frames
Codec ID : V_MPEG4/ISO/AVC
Duration : 2h 45mn
Bit rate : 600 Kbps
Width : 624 pixels
Height : 312 pixels
Display aspect ratio : 2.000
Frame rate mode : Constant
Frame rate : 29.970 fps
Color space : YUV
Chroma subsampling : 4:2:0
Bit depth : 8 bits
Scan type : Progressive
Bits/(Pixel*Frame) : 0.103
Stream size : 701 MiB (86%)
Writing library : x264 core 120
Language : Hindi
Default : Yes
Forced : No
Color primaries : BT.601 NTSC
Transfer characteristics : BT.709
Matrix coefficients : BT.601
Audio
ID : 2
Format : AC-3
Format/Info : Audio Coding 3
Mode extension : CM (complete main)
Format settings, Endianness : Big
Codec ID : A_AC3
Duration : 2h 45mn
Bit rate mode : Constant
Bit rate : 80.0 Kbps
Channel(s) : 2 channels
Channel positions : Front: L R
Sampling rate : 48.0 KHz
Bit depth : 16 bits
Compression mode : Lossy
Stream size : 94.6 MiB (12%)
Default : Yes
Forced : No
Ripper : DADA - RRGhttp://www.imdb.com/title/tt0050758/
Directed by
B.R. Chopra	 	
Writing credits
(in alphabetical order)
Akhtar Mirza	 	screenplay
Akhtar Mirza	 	story
Kamil Rashid	 	dialogue
Cast (in credits order) verified as complete
	Dilip Kumar	... 	Shankar
	Vyjayanthimala	... 	Rajni
	Ajit	... 	Krishna (as A j i t)
	Chand Usmani	... 	Manju
	Jeevan	... 	Kundan
	Nasir Hussain	... 	Seth. Maganlal (as Nazir Hussain)
	Manmohan Krishna	... 	Jumman Dada
	Leela Chitnis	... 	Shankar's Mother
	S.N. Banerjee	... 	Tanga Driver (with a cheek mole) (as S. Banerjee)
	Pratima Devi	... 	Durga Mausie
	S. Nazir		
	Munshi Munakka		(as Munshi Munaqqa)
	Ravikant		
	Sagar		
	Uma Dutt		(as Umadutt)
	Kathana		
	C.L. Shah		
	Laxman		(as Luxman)
	Nazir Kashmiri		
	Lala Nazir		
	Raju		(as Rajoo)
	Shashi		
	Daisy Irani	... 	Chikha Master
	Radhakrishan	... 	Maharaj Narayan (as Radhakishan)
	Johnny Walker	... 	Anjana (Photographer)
	Kumkum	... 	Dancer in song "Reshmi Salwar Kurta Jali Ka" (as Kum Kum)
	Minoo Mumtaz	... 	Dancer in song "Reshmi Salwar Kurta Jali Ka"
rest of cast listed alphabetically:
	Moolchand	... 	Man got refused for ride. (uncredited)
Shankar lives in a remote village in rural India with his mother and sister, Manju, and drives a horse-carriage for a living. The main employer in the region is a kind-hearted businessman Maganlal. When Maganlal announces that he would like to undertake a religious pilgrimage, his son, Kundan, takes over and wants to cut back on labor and mechanize the business - thus leading to loss in jobs. He also introduces a bus thus taking away business from the horse-carriage drivers. This angers the community and they ask Kundan to reconsider, and he flats refuses - but agrees to withdraw the bus provided Shankar races it with his horse-carriage. Watch the action unfold as Shankar unites a divided village, and how he sets about to keep his faith in winning this race between man and machine. 
Naya.Daur.1957.DVDRip.X264.Ac3.RRG.DADA.DBBians.Com/Naya.Daur.1957.DVDRip.X264.Ac3.RRG.DADA.DBBians.Com .mkv 846.256 MB
Naya.Daur.1957.DVDRip.X264.Ac3.RRG.DADA.DBBians.Com/Sample.Naya.Daur.1957.DVDRip.X264.Ac3.RRG.DADA.DBBians.Com.mkv 2.524 MB
Naya.Daur.1957.DVDRip.X264.Ac3.RRG.DADA.DBBians.Com/Screens/Naya.Daur.1957.DVDRip.X264.Ac3.RRG.DADA.DBBians.Com .mkv_thumbs_[2013.05.01_18.44.25].jpg 568.977 KB
Gathering some info...

Register and log in Isohunt and see no captcha anymore!

4000 symbols left
Hash 973b2f3156855b5ef81fdc7012658cfbd5d432c1