Chirag.Kahan.Roshni.Kahan.1959.DVDRip.XviD.Mp3.RRG.DADA.DBBians.Com

Size 1.567 GB   0 seeders     Added 2013-05-03 22:05:36

Stream torrent
Starting‥ You need BitLord! Get it from BitLord.com
To download or stream you need BitLord. Visit them at BitLord.com
							
-: Cover :-
-: Screens :-           
-: Info :-
General
Format : AVI
Format/Info : Audio Video Interleave
File size : 1.46 GiB
Duration : 2h 27mn
Overall bit rate : 1 413 Kbps
Video
ID : 0
Format : MPEG-4 Visual
Format profile : Advanced Simple@L5
Format settings, BVOP : Yes
Format settings, QPel : No
Format settings, GMC : No warppoints
Format settings, Matrix : Default (H.263)
Muxing mode : Packed bitstream
Codec ID : XVID
Codec ID/Hint : XviD
Duration : 2h 27mn
Bit rate : 1 277 Kbps
Width : 640 pixels
Height : 416 pixels
Display aspect ratio : 3:2
Frame rate : 29.970 fps
Color space : YUV
Chroma subsampling : 4:2:0
Bit depth : 8 bits
Scan type : Progressive
Bits/(Pixel*Frame) : 0.160
Stream size : 1.32 GiB (90%)
Writing library : XviD 1.2.1 (UTC 2008-12-04)
Audio
ID : 1
Format : MPEG Audio
Format version : Version 1
Format profile : Layer 3
Mode : Joint stereo
Codec ID : 55
Codec ID/Hint : MP3
Duration : 2h 27mn
Bit rate mode : Constant
Bit rate : 128 Kbps
Channel(s) : 2 channels
Sampling rate : 48.0 KHz
Stream size : 135 MiB (9%)
Alignment : Aligned on interleaves
Interleave, duration : 133 ms (4.00 video frames)
Interleave, preload duration : 216 ms
Title : audio
Writing library : LAME3.98r
Encoding settings : -m j -V 4 -q 2 -lowpass 17 -b 128
Text
ID : 2
Duration : 2h 27mn
Bit rate : 112 bps
Stream size : 121 KiB (0%)http://www.imdb.com/title/tt0139116/
Directed by
Devendra Goel	 	
Cast (in alphabetical order)
	Mumtaz Begum	... 	Ratna's mother-in-law
	Edwina	... 	Dancer
	Honey Irani	... 	Raju
	Rajendra Kumar	... 	Dr. Anand
	Meena Kumari	... 	Ratna
	Minoo Mumtaz	... 	Nurse Maya Verma
	Nilambai	... 	Nurse Sarla Verma
	S.K. Prem		
	Madan Puri	... 	Dr. Mehta
	Asit Sen	... 	Anand's dad's Solicitor
	Sunder	... 	Advocate S. Prakash
Produced by
Devendra Goel	.... 	producer
Original Music by
Ravi	 	
A pregnant Ratna loses her husband, eventually gives birth to a son, Raju, in a hospital where she is treated by renowned Dr. Anand. Four years later, Anand re-enters their lives and starts becoming a frequent visitor. This does not auger well with Ratna's mother-in-law and Bela, her husband's sister, who make her life miserable, eventually forcing Anand to stop visiting. Shortly thereafter Anand gets married to a nurse, Maya Verma. Maya is a spendthrift,does not get along with Anand, and eventually finds out that she cannot conceive. When Anand's dad passes away, he leaves considerable wealth to Anand's child, including a monthly allowance of Rs.10,000/-. Maya initially plots with an advocate, S. Prakash, who is Bela's husband, who had assisted her in getting married to Anand, to try and prove that her late father-in-law was insane, and when that fails she and her aunt, Nurse Sarla Verma, concoct a plot that Ratna's son is really Anand's biological son, leading to their lawyer filing.
Chirag.Kahan.Roshni.Kahan.1959.DVDRip.XviD.Mp3.RRG.DADA.DBBians.Com/Chirag.Kahan.Roshni.Kahan.1959.DVDRip.XviD.Mp3.RRG.DADA.DBBians.Com.avi 1.567 GB
Chirag.Kahan.Roshni.Kahan.1959.DVDRip.XviD.Mp3.RRG.DADA.DBBians.Com/Chirag.Kahan.Roshni.Kahan.1959.DVDRip.XviD.Mp3.RRG.DADA.DBBians.Com.srt 124.173 KB
Chirag.Kahan.Roshni.Kahan.1959.DVDRip.XviD.Mp3.RRG.DADA.DBBians.Com/oldrrg.jpg 127.161 KB
Gathering some info...

Register and log in Isohunt and see no captcha anymore!

4000 symbols left
Hash fd564f0570aaec0ebc1c6bff75b09e04ca4aeece