imdb
rating

6.3
Hamilton: In the Interest of the Nation

Hamilton: In the Interest of the Nation (2012)

Action, Drama, Thriller

Full description
quality   bd x264 hd dvdrip dvdr hdtv

Hamilton.In.The.Best.Interest.Of.The.Nation.2012 BRRip XViD juggs

Size 744.915 MB   0 seeders     Added 2013-05-03 22:31:52

Stream torrent
Starting‥ You need BitLord! Get it from 1BitLord.com
To download or stream you need BitLord. Visit them at BitLord.com
Source : PFa(Thanks)
 
http://www.imdb.com/title/tt1856014

Format                                   : AVI
Format/Info                              : Audio Video Interleave
File size                                : 700 MiB
Duration                                 : 1h 49mn
Overall bit rate                         : 895 Kbps
Writing library                          : VirtualDub build 32842/release

Video
ID                                       : 0
Format                                   : MPEG-4 Visual
Format profile                           : Advanced Simple@L5
Format settings, BVOP                    : 2
Format settings, QPel                    : No
Format settings, GMC                     : No warppoints
Format settings, Matrix                  : Default (H.263)
Muxing mode                              : Packed bitstream
Codec ID                                 : XVID
Codec ID/Hint                            : XviD
Duration                                 : 1h 49mn
Bit rate                                 : 757 Kbps
Width                                    : 640 pixels
Height                                   : 256 pixels
Display aspect ratio                     : 2.500
Frame rate                               : 24.000 fps
Color space                              : YUV
Chroma subsampling                       : 4:2:0
Bit depth                                : 8 bits
Scan type                                : Progressive
Compression mode                         : Lossy
Bits/(Pixel*Frame)                       : 0.193
Stream size                              : 592 MiB (85%)
Writing library                          : XviD 1.2.0.dev47 (UTC 2006-11-01)

Audio
ID                                       : 1
Format                                   : MPEG Audio
Format version                           : Version 1
Format profile                           : Layer 3
Codec ID                                 : 55
Codec ID/Hint                            : MP3
Duration                                 : 1h 49mn
Bit rate mode                            : Constant
Bit rate                                 : 128 Kbps
Channel(s)                               : 2 channels
Sampling rate                            : 44.1 KHz
Compression mode                         : Lossy
Stream size                              : 100 MiB (14%)
Alignment                                : Split accross interleaves
Interleave, duration                     : 42 ms (1.00 video frame)
Interleave, preload duration             : 500 ms
Writing library                          : LAME3.99r
Encoding settings                        : -m s -V 4 -q 3 -lowpass 17 -b 128

Plot
Special agent Hamilton goes undercover and joins a Russian mafia organization that smuggles swedish weapons to terrorists. Suddenly they are attacked by unknown group of heavily armed men

 
image 
image 
image		
Hamilton.In.The.Best.Interest.Of.The.Nation.2012 BRRip XViD juggs/Hamilton.In.The.Best.Interest.Of.The.Nation.2012 BRRip XViD juggs.avi 733.61 MB
Hamilton.In.The.Best.Interest.Of.The.Nation.2012 BRRip XViD juggs/Torrent Downloaded From ExtraTorrent.com.txt 339 B
Hamilton.In.The.Best.Interest.Of.The.Nation.2012 BRRip XViD juggs/sample.avi 11.305 MB
Gathering some info...

Register and log in Isohunt and see no captcha anymore!

4000 symbols left
Hash af5b3af32e6076adcc1cb94919d5ec8df273f6c7

Related torrents for "Hamilton.In.The.Best.Interest.Of.The.Nation.2012 BRRip XViD juggs"

Torrent search:

2012 bd