imdb
rating

8.0
Cinderella Man

Cinderella Man (2005)

Drama, History, Romance

Full description
quality   dvdr dvdrip x264 hd bd h264

Cinderella.Man.2005.BRRip.720p.x264-LSK.mp4

Size 2.417 GB   0 seeders     Added 2013-05-04 02:34:38

Stream torrent
Starting‥ You need BitLord! Get it from BitLord.com
To download or stream you need BitLord. Visit them at BitLord.com
General
      Complete name : Cinderella.Man.2005.BRRip.720p.x264-LSK.mp4
      Format : MPEG-4
      Format profile : Base Media
      Codec ID : isom
      File size : 2.25 GiB
      Duration : 2h 24mn
      Overall bit rate : 2 233 Kbps
   Video #1
      ID : 1
      Format : AVC
      Format/Info : Advanced Video Codec
      Format profile : High@L4.1
      Format settings, CABAC : Yes
      Format settings, ReFrames : 7 frames
      Codec ID : avc1
      Codec ID/Info : Advanced Video Coding
      Duration : 2h 24mn
      Bit rate mode : Variable
      Bit rate : 1 924 Kbps
      Maximum bit rate : 10.2 Mbps
      Width : 1 280 pixels
      Height : 544 pixels
      Display aspect ratio : 2.35:1
      Frame rate mode : Constant
      Frame rate : 23.976 fps
      Resolution : 24 bits
      Colorimetry : 4:2:0
      Scan type : Progressive
      Bits/(Pixel*Frame) : 0.115
      Stream size : 1.94 GiB (86%)
      Title : GreatMagician
      Writing library : x264 core 116 r2019 9cc407d
   Audio #2
      ID : 2
      Format : AAC
      Format/Info : Advanced Audio Codec
      Format version : Version 4
      Format profile : LC
      Format settings, SBR : No
      Codec ID : 40
      Duration : 2h 24mn
      Bit rate mode : Variable
      Bit rate : 305 Kbps
      Maximum bit rate : 380 Kbps
      Channel(s) : 6 channels
      Channel positions : Front: L C R, Rear: L R, LFE
      Sampling rate : 48.0 KHz
      Resolution : 16 bits
      Stream size : 315 MiB (14%)
      Title : GreatMagician
      Language : English		
Cinderella.Man.2005.BRRip.720p.x264-LSK.mp4 2.417 GB
Gathering some info...

Register and log in Isohunt and see no captcha anymore!

4000 symbols left
Hash 12f6cd24804562fe3d995b12e2bf4913f4df78d3

Related torrents for "Cinderella.Man.2005.BRRip.720p.x264-LSK.mp4"

Torrent search:

2005 x264 hd bd