imdb
rating

6.2
Parker

Parker (2013)

Action, Crime

Full description
quality   dvdrip hd bd telesync cam x264

Parker.2013.BRRip.x264.AC3-PsiX

Size 1.558 GB   0 seeders     Added 2013-05-04 03:58:37

Stream torrent
Starting‥ You need BitLord! Get it from BitLord.com
To download or stream you need BitLord. Visit them at BitLord.com
							Parker 2013 BRRip.x264.AC3-PsiX 
 A thief with a unique code of professional ethics is double-crossed by his crew and left for dead. Assuming a new disguise and forming an unlikely alliance with a woman on the inside, he looks to hijack the score of the crew's latest heist.
Director:
Taylor Hackford
Writers:
John J. McLaughlin (screenplay), Donald E. Westlake (novel)
Stars:
Jason Statham, Jennifer Lopez, Michael Chiklis Parker.2013.BRRip.x264.AC3-PsiX.mkv
Format : Matroska
Format version : Version 2
File size : 1.45 GiB
Duration : 1h 58mn
Overall bit rate : 1 749 Kbps
Encoded date : UTC 2013-05-03 13:23:28
Writing application : mkvmerge v6.1.0 ('Old Devil') built on Mar 2 2013 14:32:37
Writing library : libebml v1.3.0 + libmatroska v1.4.0
Video
ID : 1
Format : AVC
Format/Info : Advanced Video Codec
Format profile : High@L4.1
Format settings, CABAC : Yes
Format settings, ReFrames : 8 frames
Codec ID : V_MPEG4/ISO/AVC
Duration : 1h 58mn
Bit rate : 1 364 Kbps
Width : 720 pixels
Height : 304 pixels
Display aspect ratio : 2.35:1
Frame rate mode : Constant
Frame rate : 23.976 fps
Color space : YUV
Chroma subsampling : 4:2:0
Bit depth : 8 bits
Scan type : Progressive
Bits/(Pixel*Frame) : 0.260
Stream size : 1.10 GiB (76%)
Writing library : x264 core 130 r2273 b3065e6
Audio
ID : 2
Format : AC-3
Format/Info : Audio Coding 3
Mode extension : CM (complete main)
Format settings, Endianness : Big
Codec ID : A_AC3
Duration : 1h 58mn
Bit rate mode : Constant
Bit rate : 384 Kbps
Channel(s) : 6 channels
Channel positions : Front: L C R, Side: L R, LFE
Sampling rate : 48.0 KHz
Bit depth : 16 bits
Compression mode : Lossy
Stream size : 326 MiB (22%)
Language : English
Default : Yes
Forced : No
Encoded............: PsiX
Source.............: 720p-iNFAMOUS
Subs..........Brazilian, Dutch, English, Italian, Romanian, Spanish, Greek 
Parker.2013.BRRip.x264.AC3-PsiX/Subs/Romanian.srt 179.805 KB
Parker.2013.BRRip.x264.AC3-PsiX/Subs/English.srt 107.293 KB
Parker.2013.BRRip.x264.AC3-PsiX/Subs/Spanish.srt 103.986 KB
Gathering some info...

Register and log in Isohunt and see no captcha anymore!

4000 symbols left
Hash 054b8419d3bccfbc13a909c313b73efc0bdb2cdf

Related torrents for "Parker.2013.BRRip.x264.AC3-PsiX"

Torrent search:

x264 bd 2013