Romulus, My Father 2007.DVDRip.H.263.DivX . NVEE Verified

Size 1.258 GB   0 seeders     Added 2013-05-04 05:47:38

Stream torrent
Starting‚Ä• You need BitLord! Get it from BitLord.com
To download or stream you need BitLord. Visit them at BitLord.com


FULL_INFOs



99.99% - SYNCED GUARANTEED 

Source : DVD

My Media Player of Choice "VLC Media Player"

Spoken Language : English Only

Audio : 6 ~ Channels 
 
http://www.imdb.com/title/tt0462023/



Subs Info : MULTI_SUBS

 
http://www.subtitleseeker.com/0462023/Romulus,+My+Father/Subtitles/

79 Subtitles In 15 Languages Use Link Provided 
 
http://www.subtitleseeker.com/0462023/Romulus,+My+Father/Subtitles/

79 Subtitles In 15 Languages Only @ SubtitleSeeker
 
http://www.subtitleseeker.com/0462023/Romulus,+My+Father/Subtitles/

All .srt subs can be turned On/Off


 
http://www.imdb.com/title/tt0462023/


General 

Complete name : Romulus, My Father 2007.DVDRip.H.263.DivX . NVEE.divx 
Format : AVI 
Format/Info : Audio Video Interleave 
File size : 1.17 GiB 
Duration : 1h 35mn 
Overall bit rate : 1 759 Kbps 

Video 

ID : 0 
Format : MPEG-4 Visual 
Format settings, BVOP : 1 
Format settings, QPel : No 
Format settings, GMC : No warppoints 
Format settings, Matrix : Default (H.263) 
Muxing mode : Packed bitstream 
Codec ID : DX50 
Codec ID/Hint : DivX 5 
Duration : 1h 35mn 
Bit rate : 1 301 Kbps 
Width : 720 pixels 
Height : 400 pixels 
Display aspect ratio : 16:9 
Frame rate : 25.000 fps 
Color space : YUV 
Chroma subsampling : 4:2:0 
Bit depth : 8 bits 
Scan type : Progressive 
Compression mode : Lossy 
Bits/(Pixel*Frame) : 0.181 
Stream size : 887 MiB (74%) 
Title : Video 
Writing library : DivX 6.8.5 (UTC 2009-08-20) 

Audio 

ID : 1 
Format : AC-3 
Format/Info : Audio Coding 3 
Mode extension : CM (complete main) 
Format settings, Endianness : Big 
Codec ID : 2000 
Duration : 1h 35mn 
Bit rate mode : Constant 
Bit rate : 448 Kbps 
Channel(s) : 6 channels 
Channel positions : Front: L C R, Side: L R, LFE 
Sampling rate : 48.0 KHz 
Bit depth : 16 bits 
Compression mode : Lossy 
Stream size : 305 MiB (25%) 
Alignment : Split accross interleaves 
Interleave, duration : 40 ms (1.00 video frame) 
Interleave, preload duration : 500 ms 
Title : Audio 



Plot summary

Romulus Gaita fled his Romanian hometown of Markovac in 1935 at the age of 13. He found work as a blacksmith's apprentice until he was 17, after which he moved to Germany and eventually emigrated to Australia on an assisted passage in 1950 at the age of 28, with his young wife Christine and their four-year-old son Raimond soon after the end of World War II. Romulus and his family were transferred to Bonegilla Migrant Reception and Training Centre, a camp near Wodonga. Romulus was then sent to Baringhup on the Loddon River, where he met two Romanian brothers Pantelimon (known as Hora) and Dumitru (known as Mitru).
The Gaitas later moved to a farmhouse called Frogmore where they lived for the next ten years, and where Raimond spent much of his childhood.
Christine did not stay at Frogmore to take on the responsibility as a wife and mother. She had an affair with Mitru and moved to Melbourne to be with him. Together they had two daughters. Mitru committed suicide before the birth of the second child, and Christine later also committed suicide. Both daughters were adopted. Raimond observes in retrospect that Christine likely had a mental illness.
After some attempts at farming, Romulus established a business supplying wrought iron furniture, popular at the time, and using some of the skills he brought from his native country.
Romulus also suffered from mental illness, requiring admission to a psychiatric hospital. While Romulus was unable to care for Raimond, Hora came to live with Raimond and cared for him.
Romulus later largely recovered from his mental illness, and saw Raimond live to adulthood and pursue his chosen career. Romulus later suffered heart problems and eventually died of a blood clot.



 
http://www.imdb.com/title/tt0462023/





"This Torrent File is 100% Australian"		
Romulus, My Father 2007.DVDRip.H.263.DivX . NVEE/Romulus, My Father 2007.DVDRip.H.263.DivX . NVEE.divx 1.257 GB
Romulus, My Father 2007.DVDRip.H.263.DivX . NVEE/Romulus, My Father 2007 Poster.jpg 44.024 KB
Romulus, My Father 2007.DVDRip.H.263.DivX . NVEE/romulus-my-father.jpg 44.004 KB
Gathering some info...

Register and log in Isohunt and see no captcha anymore!

4000 symbols left
Hash 41d3464bde3aed42d0db96da1b9bf2fa24e26a3e