The.Numbers.Station.2012.BRRip XViD juggs

Size 741.055 MB   0 seeders     Added 2013-05-04 07:24:34

Stream torrent
Starting‚Ä• You need BitLord! Get it from BitLord.com
To download or stream you need BitLord. Visit them at BitLord.com
							
Source : HDW(Thanks)http://www.imdb.com/title/tt1659338/
Format : AVI
Format/Info : Audio Video Interleave
File size : 699 MiB
Duration : 1h 28mn
Overall bit rate : 1 099 Kbps
Writing library : VirtualDub build 32842/release
Video
ID : 0
Format : MPEG-4 Visual
Format profile : Advanced Simple@L5
Format settings, BVOP : 2
Format settings, QPel : No
Format settings, GMC : No warppoints
Format settings, Matrix : Default (H.263)
Muxing mode : Packed bitstream
Codec ID : XVID
Codec ID/Hint : XviD
Duration : 1h 28mn
Bit rate : 962 Kbps
Width : 640 pixels
Height : 272 pixels
Display aspect ratio : 2.35:1
Frame rate : 23.976 fps
Color space : YUV
Chroma subsampling : 4:2:0
Bit depth : 8 bits
Scan type : Progressive
Compression mode : Lossy
Bits/(Pixel*Frame) : 0.230
Stream size : 612 MiB (87%)
Writing library : XviD 64
Audio
ID : 1
Format : MPEG Audio
Format version : Version 1
Format profile : Layer 3
Mode : Joint stereo
Mode extension : MS Stereo
Codec ID : 55
Codec ID/Hint : MP3
Duration : 1h 28mn
Bit rate mode : Constant
Bit rate : 128 Kbps
Channel(s) : 2 channels
Sampling rate : 44.1 KHz
Compression mode : Lossy
Stream size : 81.4 MiB (12%)
Alignment : Split accross interleaves
Interleave, duration : 42 ms (1.00 video frame)
Interleave, preload duration : 500 ms
Writing library : LAME3.98
Plot
A former black ops agent and the young woman he's assigned to protect fight for survival after a surprise attack. 
[video=http://www.youtube.com/watch?v=rFZS3spi0Xw]
						
The.Numbers.Station.2012.BRRip XViD juggs/The.Numbers.Station.2012.BRRip XViD juggs.avi 733.145 MB
The.Numbers.Station.2012.BRRip XViD juggs/Torrent Downloaded From ExtraTorrent.com.txt 339 B
The.Numbers.Station.2012.BRRip XViD juggs/sample.avi 7.909 MB
Gathering some info...

Register and log in Isohunt and see no captcha anymore!

4000 symbols left
Hash 590354026de46d58d43f0158bcb499c558f04e7c