imdb
rating

6.2
Parker

Parker (2013)

Action, Crime

Full description
quality   dvdrip hd bd telesync cam x264

Parker 2013 BRRIP XVID {1337x}-Hiest

Size 961.957 MB   126 seeders     Added 2013-05-04 09:20:33

Stream torrent
Starting‥ You need BitLord! Get it from BitLord.com
To download or stream you need BitLord. Visit them at BitLord.com
							Torrent Stats
Posters:
Description:Parker 2013 BRRIP XVID {1337x}-Hiest
iNfo:
Format : AVI
Format/Info : Audio Video Interleave
File size : 917 MiB
Duration : 1h 52mn
Overall bit rate : 1 137 Kbps
Writing application : VirtualDubMod 1.5.10.2 (build 2540/release)
Writing library : VirtualDub build 32842/release
Video
ID : 0
Format : MPEG-4 Visual
Format profile : Advanced Simple@L5
Format settings, BVOP : 2
Format settings, QPel : No
Format settings, GMC : No warppoints
Format settings, Matrix : Default (H.263)
Muxing mode : Packed bitstream
Codec ID : XVID
Codec ID/Hint : XviD
Duration : 1h 52mn
Bit rate : 999 Kbps
Width : 720 pixels
Height : 302 pixels
Display aspect ratio : 2.40:1
Frame rate : 23.976 fps
Color space : YUV
Chroma subsampling : 4:2:0
Bit depth : 8 bits
Scan type : Progressive
Compression mode : Lossy
Bits/(Pixel*Frame) : 0.192
Stream size : 806 MiB (88%)
Writing library : XviD 64
Audio
ID : 1
Format : MPEG Audio
Format version : Version 1
Format profile : Layer 3
Mode : Joint stereo
Codec ID : 55
Codec ID/Hint : MP3
Duration : 1h 52mn
Bit rate mode : Constant
Bit rate : 128 Kbps
Channel(s) : 2 channels
Sampling rate : 48.0 KHz
Compression mode : Lossy
Stream size : 103 MiB (11%)
Alignment : Split accross interleaves
Interleave, duration : 42 ms (1.00 video frame)
Interleave, preload duration : 500 mshttp://www.imdb.com/title/tt1904996/
Plot :
A thief with a unique code of professional ethics is double-crossed by his crew 
and left for dead. Assuming a new disguise and forming an unlikely alliance with 
a woman on the inside, he looks to hijack the score of the crew's latest heist.
Screen Shots:-Take a look at the trailer belowyoutube tag is disabledGreetings & Respect:
Velvetfog,MustangX,Neonrainbow,Catsout,Noir,SaM, Pitic,
Flex,Mattyboi1995, Stun,FASM,Adapa, Botzo,Deffjam555,
Stylishsalh,Twentyforty, RiddlerA,YIFY,DUBBY,ETRG,
SANTi, 26K, SAFCukO09,extremezone, froggie100,TvTeam,
HeroMaster,.BONE., GreatMagician,Dita and BlackJesus:)
Please Seed,
Enjoy ;)
						
Parker 2013 BRRIP XVID {1337x}-Hiest/1337x.org.txt 175 B
Parker 2013 BRRIP XVID {1337x}-Hiest/Blazinseedboxes.com.txt 70 B
Parker 2013 BRRIP XVID {1337x}-Hiest/Parker 2013 BRRIP XVID {1337x}-Hiest.avi 961.957 MB
Gathering some info...

Register and log in Isohunt and see no captcha anymore!

4000 symbols left
Hash aa0f467bb772505b582490e4d2fff1810cc97a7a

Related torrents for "Parker 2013 BRRIP XVID {1337x}-Hiest"

Torrent search:

bd 2013