Pooda Poodi (2012) - WebRip - HD - 480P - X264 - AC3 - Team SR

Size 1.161 GB   0 seeders     Added 2013-05-04 10:07:35

Stream torrent
Starting‚Ä• You need BitLord! Get it from 1BitLord.com
To download or stream you need BitLord. Visit them at BitLord.com
Pooda Poodi (2012) - WebRip - HD - 480P - X264 - AC3 - Team SR**Language : TAMIL**-:Movie Info:-
Code:
Directed by	Vignesh Shivan
Produced by	Padam Kumar
Meenu Kumar
Written by	Vignesh Shivan
Starring	Silambarasan,Varalaxmi Sarathkumar
Music by	Dharan Kumar
Cinematography	Duncan Telford
J. Laxman (India)
R. Rathnavelu (Love Panlaama Venaama)
Editing by	Anthony
Studio	Gemini Film Circuit
Distributed by	Gemini Film Circuit
Release date(s)	
13 November 2012 (world premiere)
16 November 2012 (United States)
Running time	115 minutes
Country	India
Language	Tamil
Budget	200 million (US$3.7 million)

-:Rip Info:-
Code:
General
Format                                   : Matroska
Format version                           : Version 2
File size                                : 1.07 GiB
Duration                                 : 1h 59mn
Overall bit rate                         : 1 286 Kbps
Encoded date                             : UTC 2011-02-12 16:52:14
Writing application                      : mkvmerge v6.1.0 ('Old Devil') built on Mar  2 2013 14:32:37
Writing library                          : libebml v1.3.0 + libmatroska v1.4.0

Video
ID                                       : 1
Format                                   : AVC
Format/Info                              : Advanced Video Codec
Format profile                           : High@L3.1
Format settings, CABAC                   : Yes
Format settings, ReFrames                : 4 frames
Codec ID                                 : V_MPEG4/ISO/AVC
Duration                                 : 1h 59mn
Bit rate                                 : 900 Kbps
Width                                    : 1 080 pixels
Height                                   : 480 pixels
Display aspect ratio                     : 2.25:1
Frame rate mode                          : Constant
Frame rate                               : 25.000 fps
Color space                              : YUV
Chroma subsampling                       : 4:2:0
Bit depth                                : 8 bits
Scan type                                : Progressive
Bits/(Pixel*Frame)                       : 0.069
Stream size                              : 749 MiB (68%)
Title                                    : WOLVERiNE
Default                                  : Yes
Forced                                   : No

Audio
ID                                       : 2
Format                                   : AC-3
Format/Info                              : Audio Coding 3
Mode extension                           : CM (complete main)
Format settings, Endianness              : Big
Codec ID                                 : A_AC3
Duration                                 : 1h 59mn
Bit rate mode                            : Constant
Bit rate                                 : 384 Kbps
Channel(s)                               : 2 channels
Channel positions                        : Front: L R
Sampling rate                            : 44.1 KHz
Bit depth                                : 16 bits
Compression mode                         : Lossy
Stream size                              : 328 MiB (30%)
Title                                    : WOLVERiNE
Default                                  : Yes
Forced                                   : No
Subtitle                                 : No
Language                                 : Tamil

** Click On images to view Original sizes **             -:Pleas Seeding,After Download:-
Pooda Poodi (2012) - WebRip - HD - 480P - X264 - AC3 - Team SR/Pooda Poodi (2012) - WebRip - HD - 480P - X264 - AC3 - Team SR.mkv 1.152 GB
Pooda Poodi (2012) - WebRip - HD - 480P - X264 - AC3 - Team SR/Screen Shot/vlcsnap-2013-05-03-20h35m49s29.png 820.567 KB
Pooda Poodi (2012) - WebRip - HD - 480P - X264 - AC3 - Team SR/Screen Shot/vlcsnap-2013-05-03-20h46m19s179.png 759.145 KB
Gathering some info...

Register and log in Isohunt and see no captcha anymore!

4000 symbols left
Hash ce19c9b65bc0cacab59915ee6f829aef4429a786