Smack_My_Bitch_Laura.mp4

Size 700.327 MB   0 seeders     Added 2013-05-04 11:40:54

Stream torrent
Starting‥ You need BitLord! Get it from 1BitLord.com
To download or stream you need BitLord. Visit them at BitLord.com
							Screens:image
This time I let my younger brother, Vladimir take over the family business for the day. He brought over one of these hot fresh out of high school 18 year old babes he knows and got down to business. I wasn’t sure what to expect out of my little brother but apparently he knows some fine ass hoes! This girl was cute as fuck with her little nose piercing and tiny sexy body. Vladimir got her real relaxed & ready to bone by massaging her where it hurts. It started off real innocent with some making out but soon my boy made me proud and was hitting them skins hardcore! I’m most proud of the awesome cum shot he blew all over this sexy teen’s tits. High five Vladdy! Keep on rubbing in the free world
Smack_My_Bitch_Laura.mp4
Format : MPEG-4
Format profile : Base Media
Codec ID : isom
File size : 668 MiB
Duration : 29mn 21s
Overall bit rate mode : Variable
Overall bit rate : 3 180 Kbps
Encoded date : UTC 2012-09-28 00:50:49
Tagged date : UTC 2012-09-28 00:50:49
Writing application : Lavf51.12.1
Video
ID : 1
Format : AVC
Format/Info : Advanced Video Codec
Format profile : Baseline@L3.1
Format settings, CABAC : No
Format settings, ReFrames : 1 frame
Format settings, GOP : M=1, N=12
Codec ID : avc1
Codec ID/Info : Advanced Video Coding
Duration : 29mn 21s
Bit rate mode : Variable
Bit rate : 3 047 Kbps
Width : 1 280 pixels
Height : 720 pixels
Display aspect ratio : 16:9
Frame rate mode : Constant
Frame rate : 29.970 fps
Color space : YUV
Chroma subsampling : 4:2:0
Bit depth : 8 bits
Scan type : Progressive
Bits/(Pixel*Frame) : 0.110
Stream size : 640 MiB (96%)
Encoded date : UTC 2012-09-28 00:50:49
Tagged date : UTC 2012-09-28 00:50:49
Audio
ID : 2
Format : AAC
Format/Info : Advanced Audio Codec
Format profile : LC
Codec ID : 40
Duration : 29mn 21s
Bit rate mode : Variable
Bit rate : 128 Kbps
Channel(s) : 2 channels
Channel positions : Front: L R
Sampling rate : 48.0 KHz
Compression mode : Lossy
Stream size : 26.9 MiB (4%)
Encoded date : UTC 2012-09-28 00:50:49
Tagged date : UTC 2012-09-28 00:50:49
Smack_My_Bitch_Laura.mp4 700.327 MB
Gathering some info...

Register and log in Isohunt and see no captcha anymore!

4000 symbols left
Hash 10a2d9c575c0e63ed708c86441d739b02562309a