Hyde Park on Hudson 2013 FRENCH DVDRip XviD - ETRG

Size 733.958 MB   0 seeders     Added 2013-05-04 14:29:34

To download or stream you need BitLord. Visit them at BitLord.com
Hyde Park on Hudson 2013 FRENCH DVDRip XviD - ETRG


[img]image[/img]


   
Video
ID                               : 0
Format                           : MPEG-4 Visual        
Format profile                   : Advanced Simple@L5    
Format settings, BVOP            : 2          
Format settings, QPel            : No    
Format settings, GMC             : No warppoints
Format settings, Matrix          : Default (H.263)   
Muxing mode                      : Packed bitstream               
Codec ID                         : XVID    
Codec ID/Hint                    : XviD    
Duration                         : 1h 34mn    
Bit rate                         : 802 Kbps
Width                            : 720 pixels
Height                           : 310 pixels           
Display aspect ratio             : 2.500
Frame rate                       : 23.976 fps    
Color space                      : YUV
Chroma subsampling               : 4:2:0
Bit depth                        : 8 bits
Scan type                        : Progressive
Compression mode                 : Lossy
Bits/(Pixel*Frame)               : 0.420
Stream size                      : 657 MiB (94%)
Writing library                  : XviD 64
                               
Audio
ID                               : 1
Format                           : MPEG Audio
Format version                   : Version 1
Format profile                   : Layer 3
Mode                             : Joint stereo
Mode extension                   : MS Stereo
Codec ID                         : 55
Codec ID/Hint                    : MP3
Duration                         : 1h 34mn
Bit rate mode                    : Constant
Bit rate                         : 128 Kbps
Channel(s)                       : 2 channels
Sampling rate                    : 44.1 KHz
Compression mode                 : Lossy
Stream size                      : 42.7 MiB (6%)
Alignment                        : Split accross interleaves
Interleave, duration             : 42 ms (1.00 video frame)     
Hyde Park on Hudson 2013 FRENCH DVDRip XviD - ETRG/cover.jpg 42.192 KB
Hyde Park on Hudson 2013 FRENCH DVDRip XviD - ETRG/Hyde Park on Hudson 2013 FRENCH DVDRip XviD - ETRG.nfo 2.102 KB
Hyde Park on Hudson 2013 FRENCH DVDRip XviD - ETRG/Hyde Park on Hudson 2013 FRENCH DVDRip XviD - ETRG/Hyde Park on Hudson 2013 FRENCH DVDRip XviD - ETRG.rar 733.685 MB
Gathering some info...

Register and log in Isohunt and see no captcha anymore!

4000 symbols left
Hash aab772379c0bb7aa2f7318088f58f81edeb167b6