imdb
rating

7.9
The Fall

The Fall (2008)

Adventure, Drama, Fantasy

Full description
quality   dvdrip bd screener hd

Fall Out Boy - My Songs Know What You Did In The Dark [Light Em Up] 720p [Sbyky].mp4

Size 48.094 MB   8 seeders     Added 2013-05-04 16:01:36

Stream torrent
Starting‥ You need BitLord! Get it from 1BitLord.com
To download or stream you need BitLord. Visit them at BitLord.com
							
General
Complete name : Fall Out Boy - My Songs Know What You Did In The Dark [Light Em Up] 720p [Sbyky].mp4
Format : MPEG-4
Format profile : Base Media / Version 2
Codec ID : mp42
File size : 45.9 MiB
Duration : 3mn 7s
Overall bit rate mode : Variable
Overall bit rate : 2 050 Kbps
Encoded date : UTC 2013-02-07 07:40:38
Tagged date : UTC 2013-02-07 07:40:38
Video
ID : 1
Format : AVC
Format/Info : Advanced Video Codec
Format profile : High@L3.1
Format settings, CABAC : Yes
Format settings, ReFrames : 1 frame
Codec ID : avc1
Codec ID/Info : Advanced Video Coding
Duration : 3mn 7s
Bit rate : 1 856 Kbps
Maximum bit rate : 6 200 Kbps
Width : 1 280 pixels
Height : 720 pixels
Display aspect ratio : 16:9
Frame rate mode : Constant
Frame rate : 23.976 fps
Color space : YUV
Chroma subsampling : 4:2:0
Bit depth : 8 bits
Scan type : Progressive
Bits/(Pixel*Frame) : 0.084
Stream size : 41.5 MiB (91%)
Tagged date : UTC 2013-02-07 07:40:42
Audio
ID : 2
Format : AAC
Format/Info : Advanced Audio Codec
Format profile : LC
Codec ID : 40
Duration : 3mn 7s
Bit rate mode : Variable
Bit rate : 192 Kbps
Maximum bit rate : 202 Kbps
Channel(s) : 2 channels
Channel positions : Front: L R
Sampling rate : 44.1 KHz
Compression mode : Lossy
Stream size : 4.30 MiB (9%)
Title : IsoMedia File Produced by Google, 5-11-2011
Encoded date : UTC 2013-02-07 07:40:41
Tagged date : UTC 2013-02-07 07:40:42
Shared By Sbyky
Fall Out Boy - My Songs Know What You Did In The Dark [Light Em Up] 720p [Sbyky].mp4 48.094 MB
Gathering some info...

Register and log in Isohunt and see no captcha anymore!

4000 symbols left
Hash bd450b514e53f9ff60148a7e27808d1b3f299b7f

Related torrents for "Fall Out Boy - My Songs Know What You Did In The Dark [Light Em Up] 720p [Sbyky].mp4"

Torrent search:

hd