imdb
rating

7.7
Bad

Bad (2007)

Full description
quality   cam dvdrip hd fullhd

Wale Ft. Tiara Thomas - Bad [Music Video] 720p [Sbyky].mp4

Size 78.795 MB   4 seeders     Added 2013-05-04 17:58:34

Stream torrent
Starting‥ You need BitLord! Get it from BitLord.com
To download or stream you need BitLord. Visit them at BitLord.com
							
General
Complete name : Wale Ft. Tiara Thomas - Bad [Music Video] 720p [Sbyky].mp4
Format : MPEG-4
Format profile : Base Media / Version 2
Codec ID : mp42
File size : 75.1 MiB
Duration : 5mn 50s
Overall bit rate mode : Variable
Overall bit rate : 1 800 Kbps
Encoded date : UTC 2013-04-08 02:47:20
Tagged date : UTC 2013-04-08 02:47:20
Video
ID : 1
Format : AVC
Format/Info : Advanced Video Codec
Format profile : High@L3.1
Format settings, CABAC : Yes
Format settings, ReFrames : 1 frame
Format settings, GOP : M=1, N=60
Codec ID : avc1
Codec ID/Info : Advanced Video Coding
Duration : 5mn 50s
Bit rate : 1 605 Kbps
Maximum bit rate : 3 725 Kbps
Width : 1 280 pixels
Height : 720 pixels
Display aspect ratio : 16:9
Frame rate mode : Constant
Frame rate : 23.976 fps
Color space : YUV
Chroma subsampling : 4:2:0
Bit depth : 8 bits
Scan type : Progressive
Bits/(Pixel*Frame) : 0.073
Stream size : 67.0 MiB (89%)
Tagged date : UTC 2013-04-08 02:47:27
Audio
ID : 2
Format : AAC
Format/Info : Advanced Audio Codec
Format profile : LC
Codec ID : 40
Duration : 5mn 50s
Bit rate mode : Variable
Bit rate : 192 Kbps
Maximum bit rate : 202 Kbps
Channel(s) : 2 channels
Channel positions : Front: L R
Sampling rate : 44.1 KHz
Compression mode : Lossy
Stream size : 8.02 MiB (11%)
Title : IsoMedia File Produced by Google, 5-11-2011
Encoded date : UTC 2013-04-08 02:47:24
Tagged date : UTC 2013-04-08 02:47:27
Shared By Sbyky
Wale Ft. Tiara Thomas - Bad [Music Video] 720p [Sbyky].mp4 78.795 MB
Gathering some info...

Register and log in Isohunt and see no captcha anymore!

4000 symbols left
Hash 9a75f74ac7b7df9a1410e6031cf2e441151f130f

Related torrents for "Wale Ft. Tiara Thomas - Bad [Music Video] 720p [Sbyky].mp4"

Torrent search:

hd