imdb
rating

7.7
Bad

Bad (2007)

Full description
quality   cam dvdrip hd fullhd

Wale Ft. Tiara Thomas - Bad [Music Video] 1080p [Sbyky].mp4

Size 155.495 MB   0 seeders     Added 2013-05-04 18:01:35

Stream torrent
Starting‥ You need BitLord! Get it from BitLord.com
To download or stream you need BitLord. Visit them at BitLord.com
							
General
Complete name : Wale Ft. Tiara Thomas - Bad [Music Video] 1080p [Sbyky].mp4
Format : MPEG-4
Format profile : Base Media / Version 2
Codec ID : mp42
File size : 148 MiB
Duration : 5mn 50s
Overall bit rate mode : Variable
Overall bit rate : 3 552 Kbps
Encoded date : UTC 2013-04-08 02:47:45
Tagged date : UTC 2013-04-08 02:47:45
Video
ID : 1
Format : AVC
Format/Info : Advanced Video Codec
Format profile : High@L4.0
Format settings, CABAC : Yes
Format settings, ReFrames : 1 frame
Format settings, GOP : M=1, N=48
Codec ID : avc1
Codec ID/Info : Advanced Video Coding
Duration : 5mn 50s
Bit rate : 3 357 Kbps
Maximum bit rate : 6 895 Kbps
Width : 1 920 pixels
Height : 1 080 pixels
Display aspect ratio : 16:9
Frame rate mode : Constant
Frame rate : 23.976 fps
Color space : YUV
Chroma subsampling : 4:2:0
Bit depth : 8 bits
Scan type : Progressive
Bits/(Pixel*Frame) : 0.068
Stream size : 140 MiB (95%)
Tagged date : UTC 2013-04-08 02:47:55
Audio
ID : 2
Format : AAC
Format/Info : Advanced Audio Codec
Format profile : LC
Codec ID : 40
Duration : 5mn 50s
Bit rate mode : Variable
Bit rate : 192 Kbps
Maximum bit rate : 202 Kbps
Channel(s) : 2 channels
Channel positions : Front: L R
Sampling rate : 44.1 KHz
Compression mode : Lossy
Stream size : 8.02 MiB (5%)
Title : IsoMedia File Produced by Google, 5-11-2011
Encoded date : UTC 2013-04-08 02:47:53
Tagged date : UTC 2013-04-08 02:47:55
Shared By Sbyky
Wale Ft. Tiara Thomas - Bad [Music Video] 1080p [Sbyky].mp4 155.495 MB
Gathering some info...

Register and log in Isohunt and see no captcha anymore!

4000 symbols left
Hash f2b41969200821e82efc82a97ac57ce4f5c7ab98

Related torrents for "Wale Ft. Tiara Thomas - Bad [Music Video] 1080p [Sbyky].mp4"

Torrent search:

fullhd