Business Man (2012) Malayalam - DVDRip - x264 - 576p - Untouched AC3 - Subs [Team Jaffa].mkv

Size 2.25 GB   0 seeders     Added 2013-05-04 18:08:33

Stream torrent
Starting‥ You need BitLord! Get it from BitLord.com
To download or stream you need BitLord. Visit them at BitLord.com

Code:
General
Complete name                    : Business Man (2012) Malayalam - DVDRip - x264 - 576p - Untouched AC3 - Subs [Team Jaffa].mkv
Format                           : Matroska
File size                        : 2.10 GiB
Duration                         : 2h 11mn
Overall bit rate                 : 2 279 Kbps
Movie name                       : Business Man (2012) Malayalam By Team Jaffa


Video
ID                               : 1
Format                           : AVC
Format/Info                      : Advanced Video Codec
Format profile                   : High@L3.1
Format settings, CABAC           : Yes
Format settings, ReFrames        : 8 frames
Format settings, GOP             : M=4, N=32
Muxing mode                      : Container profile=Unknown@3.1
Codec ID                         : V_MPEG4/ISO/AVC
Duration                         : 2h 11mn
Bit rate                         : 1 830 Kbps
Width                            : 1 024 pixels
Height                           : 432 pixels
Display aspect ratio             : 2.35:1
Frame rate                       : 23.976 fps
Color space                      : YUV
Chroma subsampling               : 4:2:0
Bit depth                        : 8 bits
Scan type                        : Progressive
Bits/(Pixel*Frame)               : 0.173
Stream size                      : 1.64 GiB (78%)

Audio
ID                               : 2
Format                           : AC-3
Format/Info                      : Audio Coding 3
Mode extension                   : CM (complete main)
Codec ID                         : A_AC3
Duration                         : 2h 11mn
Bit rate mode                    : Constant
Bit rate                         : 448 Kbps
Channel(s)                       : 6 channels
Channel positions                : Front: L C R, Side: L R, LFE
Sampling rate                    : 48.0 KHz
Bit depth                        : 16 bits
Stream size                      : 422 MiB (20%)

Text
ID                               : 3
Format                           : UTF-8
Codec ID                         : S_TEXT/UTF8
Codec ID/Info                    : UTF-8 Plain Text


Business Man (2012) Malayalam - DVDRip - x264 - 576p - Untouched AC3 - Subs [Team Jaffa].mkv 2.25 GB
Gathering some info...

Register and log in Isohunt and see no captcha anymore!

4000 symbols left
Hash 2e32f7449eafe9db0098b9286e7fdba65ee304f9