Business Man (2012) Malayalam - DVDRip - 720p - X264 - DTS - Subs [Team Jaffa].mkv

Size 4.686 GB   0 seeders     Added 2013-05-04 18:11:33

Stream torrent
Starting‥ You need BitLord! Get it from 1BitLord.com
To download or stream you need BitLord. Visit them at BitLord.com

[General
Complete name                    : Business Man (2012) Malayalam - DVDRip - 720p - X264 - DTS - Subs .mkv
Format                           : Matroska
File size                        : 4.36 GiB
Duration                         : 2h 11mn
Overall bit rate                 : 4 747 Kbps
Movie name                       : Business Man (2012) Malayalam 


Video
ID                               : 1
Format                           : AVC
Format/Info                      : Advanced Video Codec
Format profile                   : High@L4.0
Format settings, CABAC           : Yes
Format settings, ReFrames        : 8 frames
Muxing mode                      : Container profile=Unknown@4.0
Codec ID                         : V_MPEG4/ISO/AVC
Duration                         : 2h 11mn
Bit rate                         : 3 993 Kbps
Width                            : 1 280 pixels
Height                           : 544 pixels
Display aspect ratio             : 2.35:1
Frame rate                       : 23.976 fps
Color space                      : YUV
Chroma subsampling               : 4:2:0
Bit depth                        : 8 bits
Scan type                        : Progressive
Bits/(Pixel*Frame)               : 0.239


Audio
ID                               : 2
Format                           : DTS
Format/Info                      : Digital Theater Systems
Codec ID                         : A_DTS
Duration                         : 2h 11mn
Bit rate mode                    : Constant
Bit rate                         : 755 Kbps
Channel(s)                       : 6 channels
Channel positions                : Front: L C R, Side: L R, LFE
Sampling rate                    : 48.0 KHz
Bit depth                        : 16 bits
Stream size                      : 710 MiB (16%)

Text
ID                               : 3
Format                           : UTF-8
Codec ID                         : S_TEXT/UTF8
Codec ID/Info                    : UTF-8 Plain Text

/CODE]
[img]image[/img]
[img]image[/img]
[img]image[/img]
[img]image[/img]
[img]image[/img]
[img]image[/img]
[img]image[/img]
[img]image[/img]
[img]image[/img]
[img]image[/img]
[img]image[/img]
[img]image[/img]
[img]image[/img]
[img]image[/img]
[/CENTER][CODE][General
Complete name                    : Business Man (2012) Malayalam - DVDRip - 720p - X264 - DTS - Subs [Team Jaffa].mkv
Format                           : Matroska
File size                        : 4.36 GiB
Duration                         : 2h 11mn
Overall bit rate                 : 4 747 Kbps
Movie name                       : Business Man (2012) Malayalam [Team Jaffa]


Video
ID                               : 1
Format                           : AVC
Format/Info                      : Advanced Video Codec
Format profile                   : High@L4.0
Format settings, CABAC           : Yes
Format settings, ReFrames        : 8 frames
Muxing mode                      : Container profile=Unknown@4.0
Codec ID                         : V_MPEG4/ISO/AVC
Duration                         : 2h 11mn
Bit rate                         : 3 993 Kbps
Width                            : 1 280 pixels
Height                           : 544 pixels
Display aspect ratio             : 2.35:1
Frame rate                       : 23.976 fps
Color space                      : YUV
Chroma subsampling               : 4:2:0
Bit depth                        : 8 bits
Scan type                        : Progressive
Bits/(Pixel*Frame)               : 0.239


Audio
ID                               : 2
Format                           : DTS
Format/Info                      : Digital Theater Systems
Codec ID                         : A_DTS
Duration                         : 2h 11mn
Bit rate mode                    : Constant
Bit rate                         : 755 Kbps
Channel(s)                       : 6 channels
Channel positions                : Front: L C R, Side: L R, LFE
Sampling rate                    : 48.0 KHz
Bit depth                        : 16 bits
Stream size                      : 710 MiB (16%)

Text
ID                               : 3
Format                           : UTF-8
Codec ID                         : S_TEXT/UTF8
Codec ID/Info                    : UTF-8 Plain Text

/CODE]
Business Man (2012) Malayalam - DVDRip - 720p - X264 - DTS - Subs [Team Jaffa].mkv 4.686 GB
Gathering some info...

Register and log in Isohunt and see no captcha anymore!

4000 symbols left
Hash 6a09f65046d4a10e6f8fc08af2babd4aec223654

Related torrents for "Business Man (2012) Malayalam - DVDRip - 720p - X264 - DTS - Subs [Team Jaffa].mkv"

Torrent search:

dvdrip subs x264 hd 2012