imdb
rating

5.6
Over the Top

Over the Top (1987)

Action, Drama

Full description
quality   h264 bd dvdrip x264 hd fullhd

Over The Top (1987)

Size 1.692 GB   24 seeders     Added 2013-05-04 20:39:34

Stream torrent
Starting‥ You need BitLord! Get it from 1BitLord.com
To download or stream you need BitLord. Visit them at BitLord.com
							Over The Top (1987) [XviD - Italian English Ac3 5.1 - Sub Eng] MIRCrew [TNT Village]
Over The Top (1987)
Titolo originale 	Over the Top
Paese di produzione 	Stati Uniti d'America
Anno 	1987
Durata 	93 min
Rapporto 	2,20:1
Genere 	drammatico, azione, sportivo
Regia 	Menahem Golan
Soggetto 	Gary Conway, David Engelbach
Sceneggiatura 	Stirling Silliphant, Sylvester Stallone
Produttore 	Menahem Golan, Yoram Globus
Musiche 	Giorgio Moroder
 Sylvester Stallone: Lincoln Hawks
 Robert Loggia: Jason Cutler
 David Mendenhall: Micheael "Mike" Cutler-Hawks
 Rick Zumwalt: Bob "Bull" Harley
 Susan Blakely: Christina Cutler-Hawks
 Terry Funk: Ruker
 Magic Schwarz: Smasher
Doppiatori italiani
 Ferruccio Amendola: Lincoln Hawks
 Alessandro Sperlì: Jason Cutler
 Ilaria Stagni: Mike Cutler
 Vittoria Febbi: Christina Hawks
 Alessandro Rossi: Bob "Bull" Harley
Lincoln Hawks è un camionista con un unico, grande dolore: non si perdona di aver lasciato il figlio Michael in tenera età e la moglie Christina (Susan Blakely) a causa del ricco e odiato 
suocero che lo ha sopraffatto con la potenza del suo denaro senza la possibilità di resistere, e di essere fuggito via sulle strade al sole cocente delle lunghe traversate degli Stati Uniti 
invece di combattere per i suoi affetti più cari.
Ora Lincoln ha la possibilità di riscattarsi, grazie anche alla moglie, che non ha mai smesso di volergli bene: la donna, ormai morente a seguito di un male incurabile, dopo anni di 
doloroso silenzio gli chiede di portarle personalmente il figlio Michael, studente in una prestigiosa scuola militare.
L'incontro tra i due non è semplice. Diffidenza e rancore dividono il ragazzo dal padre (inizialmente Michael dà perfino del "lei" al genitore), da quest'uomo burbero che il nonno gli ha 
sempre descritto come un poco di buono e un approfittatore. Il viaggio in camion, però, è lungo, e il tempo e le avventure passate insieme faranno rinascere, sia pur a fatica, il 
legame.........
Lincoln Hawk (Stallone) is a struggling trucker who's trying to rebuild his life. After the death of his wife, he tries to make amends with his son who he left behind years earlier. Upon 
their first meeting, his son doesn't think too highly of him until he enters the nation-wide arm wrestling competition in Las Vegas............
[spoiler]
General
Complete name : F:\Over The Top (1987)\Over The Top (1987).avi
Format : AVI
Format/Info : Audio Video Interleave
File size : 1.58 GiB
Duration : 1h 33mn
Overall bit rate : 2 410 Kbps
Writing application : VirtualDubMod 1.5.10.2 (build 2540/release)
Writing library : VirtualDubMod build 2540/release
Video
ID : 0
Format : MPEG-4 Visual
Format profile : Simple@L3
Format settings, BVOP : Yes
Format settings, QPel : No
Format settings, GMC : No warppoints
Format settings, Matrix : Default (H.263)
Codec ID : XVID
Codec ID/Hint : XviD
Duration : 1h 33mn
Bit rate : 1 500 Kbps
Width : 720 pixels
Height : 304 pixels
Display aspect ratio : 2.35:1
Frame rate : 23.976 fps
Color space : YUV
Chroma subsampling : 4:2:0
Bit depth : 8 bits
Scan type : Progressive
Bits/(Pixel*Frame) : 0.286
Stream size : 1 004 MiB (62%)
Audio #1
ID : 1
Format : AC-3
Format/Info : Audio Coding 3
Mode extension : CM (complete main)
Codec ID : 2000
Duration : 1h 33mn
Bit rate mode : Constant
Bit rate : 448 Kbps
Channel(s) : 6 channels
Channel positions : Front: L C R, Side: L R, LFE
Sampling rate : 48.0 KHz
Bit depth : 16 bits
Video delay : 2s 0ms
Stream size : 300 MiB (19%)
Alignment : Split accross interleaves
Interleave, duration : 42 ms (1.00 video frame)
Interleave, preload duration : 500 ms
Audio #2
ID : 2
Format : AC-3
Format/Info : Audio Coding 3
Mode extension : CM (complete main)
Codec ID : 2000
Duration : 1h 33mn
Bit rate mode : Constant
Bit rate : 448 Kbps
Channel(s) : 6 channels
Channel positions : Front: L C R, Side: L R, LFE
Sampling rate : 48.0 KHz
Bit depth : 16 bits
Stream size : 300 MiB (19%)
Alignment : Split accross interleaves
Interleave, duration : 42 ms (1.00 video frame)
Interleave, preload duration : 500 ms
[/spoiler]
Over The Top (1987)/Over The Top (1987).avi 1.692 GB
Over The Top (1987)/Over The Top (1987).eng.srt 89.21 KB
Gathering some info...

Register and log in Isohunt and see no captcha anymore!

4000 symbols left
Hash aa8eab32a312176839183c9592ece49dead85ecb

Related torrents for "Over The Top (1987)"

Torrent search:

1987