imdb
rating

6.5
Pain & Gain

Pain & Gain (2013)

Action, Crime, Thriller

Full description

Pain & Gain 2013 CAMRip XviD AC3 - TODE Verified

Size 733.285 MB   0 seeders     Added 2013-05-04 22:02:35

Stream torrent
Starting‥ You need BitLord! Get it from 1BitLord.com
To download or stream you need BitLord. Visit them at BitLord.com
	A trio of bodybuilders in Florida get caught up in an extortion ring and a kidnapping scheme that goes terribly wrong.



Director:
Michael Bay

Writers:
Christopher Markus (screenplay), Stephen McFeely (screenplay)

Stars:
Mark Wahlberg, Dwayne Johnson, Anthony Mackie

Genres:
Action |  Comedy |  Crime |  Drama |  Thriller

Country:
USA

Language:
English


Thanks: 26k


Format                                   : AVI
Format/Info                              : Audio Video Interleave
File size                                : 699 MiB
Duration                                 : 2h 0mn
Overall bit rate                         : 811 Kbps
Writing application                      : Lavf55.3.100

Video
ID                                       : 0
Format                                   : MPEG-4 Visual
Format profile                           : Simple@L3
Format settings, BVOP                    : No
Format settings, QPel                    : No
Format settings, GMC                     : No warppoints
Format settings, Matrix                  : Default (H.263)
Codec ID                                 : XVID
Codec ID/Hint                            : XviD
Duration                                 : 2h 0mn
Bit rate                                 : 720 Kbps
Width                                    : 640 pixels
Height                                   : 240 pixels
Display aspect ratio                     : 2.571
Frame rate                               : 25.000 fps
Color space                              : YUV
Chroma subsampling                       : 4:2:0
Bit depth                                : 8 bits
Scan type                                : Progressive
Compression mode                         : Lossy
Bits/(Pixel*Frame)                       : 0.188
Stream size                              : 621 MiB (89%)
Writing library                          : XviD 64

Audio
ID                                       : 1
Format                                   : AC-3
Format/Info                              : Audio Coding 3
Mode extension                           : CM (complete main)
Format settings, Endianness              : Big
Codec ID                                 : 2000
Duration                                 : 2h 0mn
Bit rate mode                            : Constant
Bit rate                                 : 80.0 Kbps
Channel(s)                               : 2 channels
Channel positions                        : Front: L R
Sampling rate                            : 48.0 KHz
Bit depth                                : 16 bits
Compression mode                         : Lossy
Stream size                              : 69.0 MiB (10%)
Alignment                                : Aligned on interleaves
Interleave, duration                     : 32 ms (0.80 video frame)

Screens:
 
image 
image 
image 
image
		
Pain & Gain 2013 CAMRip XviD AC3 - TODE/Pain & Gain 2013 CAMRip XviD AC3 - TODE.avi 733.285 MB
Pain & Gain 2013 CAMRip XviD AC3 - TODE/www.RARBG.com.txt 45 B
Gathering some info...

Register and log in Isohunt and see no captcha anymore!

4000 symbols left
Hash c37fdab8088b73e1d386d697b292241e4eff14a6

Related torrents for "Pain & Gain 2013 CAMRip XviD AC3 - TODE"

Torrent search:

cam 2013