Shootout At Wadala (2013) 1CD HD Scam Rip - Xvid - MP3 - Team IcTv Xclusive Verified

Size 727.371 MB   0 seeders     Added 2013-05-05 02:08:36

Stream torrent
Starting‚Ä• You need BitLord! Get it from 1BitLord.com
To download or stream you need BitLord. Visit them at BitLord.com
Elizabethtown 2005 WEBRip 480p x264 AAC - VYTO
Quote:
Genre: Genre: Comedy | Drama | Romance
Plot: During an outrageous memorial for a Southern patriarch, an unexpected romance blooms between a
young woman and man.
Director: Cameron Crowe
Stars: Orlando Bloom, Kirsten Dunst, Susan Sarandon
Rated: Rated PG-13 for language and some sexual references

Info:http://www.imdb.com/title/tt0368709/Trailer:
Quote:
Format                         : MP4
File size                      : 356 MiB
Duration                       : 2h 3mn
Overall bit rate mode          : Variable
Overall bit rate               : 402 Kbps
Video
Format                         : AVC
Format/Info                    : Advanced Video Codec
Format profile                 : High 10@L3.0
Bit rate                       : 359 Kbps
Width                          : 720 pixels
Height                         : 400 pixels
Display aspect ratio           : 16:9
Frame rate mode                : Constant
Frame rate                     : 23.976 fps
Bit depth                      : 10 bits
Stream size                    : 318 MiB (89%)
Audio
Format                         : AAC
Format/Info                    : Advanced Audio Codec
Bit rate mode                  : Variable
Bit rate                       : 39.9 Kbps
Channel(s)                     : 2 channels
Channel positions              : Front: L R
Sampling rate                  : 48.0 KHz / 24.0 KHz
Stream size                    : 35.3 MiB (10%)
Language                       : English
Subtitle                       : Yes (English)
Source                         : 720p.WEB-DL.H264-HDC (Thanks)

Screenshots:
Quote:
Encoded using revolutionary 10bit encoding, which enables us to provide you more crispier
and sharper images at small sizes, just make sure you follow our instructions without a fault.
Recommend to you to use latest version of VLC player. Install K-Lite Codec Pack or shark007 codecs
in case of any kind of problem in playback (For non-VLC Media Player users). Alternatively, install
Core AVC codecs, the fastest decoder that there is coupled with Community Center Codec Pack and play
on Windows Media Player Classic. Check sample to be sure.
Enjoy!
Encoder Notes: Looking For Early Access To Anything You Can Provide DVDScr, R5, DVDR, BluRay, Direct
Audio, Music Releases and Seedboxes. We require dedicated servers, so as to do more and fast releases of movies.
If You Got anything to offer contact us at "prg@hush.com".


Shootout At Wadala (2013) 1CD HD Scam Rip - Xvid - MP3 - Team IcTv Xclusive/Shootout At Wadala (2013) 1CD HD Scam Rip - Xvid - MP3 - Team IcTv Xclusive.avi 727.371 MB
Gathering some info...

Register and log in Isohunt and see no captcha anymore!

4000 symbols left
Hash b31080037fb58b345a7be97cd20f9d52066239e1

We have tons of cool stuff like this:

Torrent search:

hd 2013