Def Leppard - Best Of The Videos (2004) DVDRip XviD AC3 peaSoup

Size 2.149 GB   11 seeders     Added 2013-05-05 02:51:51

Stream torrent
Starting‚Ä• You need BitLord! Get it from BitLord.com
To download or stream you need BitLord. Visit them at BitLord.com
List:
List:
Best Of The Videos is a DVD featuring music videos by Def Leppard. This one-disc collection contains a total of 33 commercial single videos that helped jump the band to success after the release of their breakthrough 1983 album, Pyromania. The "Bringin' On the Heartbreak" video featured on the compilation, is the 1984 version.
This DVD collection was released alongside its own compilation CD album, which included various songs that were not released as singles and singles that did not have music videos made for them.
Tracklist
"Photograph"
"Rock of Ages"
"Foolin'"
"Bringin' On the Heartbreak" (2nd Version with Phil Collen)
"Animal"
"Women"
"Pour Some Sugar on Me" (U.S. Version)
"Armageddon It"
"Hysteria"
"Love Bites"
"Rocket"
"Let's Get Rocked"
"Make Love Like a Man"
"Heaven Is"
"Have You Ever Needed Someone So Bad"
"Stand Up (Kick Love into Motion)"
"Tonite"
"I Wanna Touch U"
"Two Steps Behind"
"Miss You In A Heartbeat"
"Action"
"When Love & Hate Collide" (4 minutes condensed "Epic" Version)
"Slang"
"Work It Out"
"All I Want Is Everything"
"Promises"
"Goodbye"
"Now"
"Long, Long Way to Go"
Extra features
There are 3 alternate versions of videos are access when a Def Leppard-style angular 'D' appears in the top right-hand side of the screen and the 'Play' button is pressed.
"Armageddon It" Alternate version
"When Love & Hate Collide" (8 "Epic" Version)
"Slang" Director's Cut (Audio track is slightly sped up)
List:

List:
Format : AVI
Format/Info : Audio Video Interleave
Format profile : OpenDML
File size : 2.00 GiB
Duration : 2h 7mn
Overall bit rate : 2 245 Kbps
Movie name : Def Leppard - Best Of The Videos (2004) DVDRip XviD AC3 peaSoup
Writing application : Lavf53.21.0
Original source form/Name : DEF_LEPPARD
Video
ID : 0
Format : MPEG-4 Visual
Format profile : Advanced Simple@L5
Format settings, BVOP : 2
Format settings, QPel : No
Format settings, GMC : No warppoints
Format settings, Matrix : Default (H.263)
Muxing mode : Packed bitstream
Codec ID : XVID
Codec ID/Hint : XviD
Duration : 2h 7mn
Bit rate : 1 978 Kbps
Width : 720 pixels
Height : 550 pixels
Display aspect ratio : 4:3
Frame rate : 25.000 fps
Color space : YUV
Chroma subsampling : 4:2:0
Bit depth : 8 bits
Scan type : Progressive
Compression mode : Lossy
Bits/(Pixel*Frame) : 0.200
Stream size : 1.76 GiB (88%)
Writing library : XviD 1.2.1 (UTC 2008-12-04)
Audio
ID : 1
Format : AC-3
Format/Info : Audio Coding 3
Mode extension : CM (complete main)
Format settings, Endianness : Big
Codec ID : 2000
Duration : 2h 7mn
Bit rate mode : Constant
Bit rate : 256 Kbps
Channel(s) : 2 channels
Channel positions : Front: L R
Sampling rate : 48.0 KHz
Bit depth : 16 bits
Compression mode : Lossy
Stream size : 233 MiB (11%)
Alignment : Aligned on interleaves
Interleave, duration : 32 ms (0.80 video frame)
Def Leppard - Best Of The Videos (2004) DVDRip XviD AC3 peaSoup/Def Leppard - Best Of The Videos (2004) DVDRip XviD AC3 peaSoup.avi 2.149 GB
Def Leppard - Best Of The Videos (2004) DVDRip XviD AC3 peaSoup/Def Leppard - Best Of The Videos (2004) DVDRip XviD AC3 peaSoup.idx 1.681 KB
Def Leppard - Best Of The Videos (2004) DVDRip XviD AC3 peaSoup/Def Leppard - Best Of The Videos (2004) DVDRip XviD AC3 peaSoup.sub 12.288 KB
Gathering some info...

Register and log in Isohunt and see no captcha anymore!

4000 symbols left
Hash bfc90ff204016ca6979213dfa82004af6f9245e5

Related torrents for "Def Leppard - Best Of The Videos (2004) DVDRip XviD AC3 peaSoup"

Torrent search:

dvdrip 2004