imdb
rating

6.0
Yankee

Yankee (1966)

Western

Full description

Daddy Yankee - Limbo [Music Video] 1080p [Sbyky].mp4

Size 187.766 MB   0 seeders     Added 2013-05-05 08:20:52

Stream torrent
Starting‥ You need BitLord! Get it from 1BitLord.com
To download or stream you need BitLord. Visit them at BitLord.com
							
General
Complete name : Daddy Yankee - Limbo [Music Video] 1080p [Sbyky].mp4
Format : MPEG-4
Format profile : Base Media / Version 2
Codec ID : mp42
File size : 179 MiB
Duration : 4mn 14s
Overall bit rate mode : Variable
Overall bit rate : 5 902 Kbps
Encoded date : UTC 2013-04-08 03:07:16
Tagged date : UTC 2013-04-08 03:07:16
Video
ID : 1
Format : AVC
Format/Info : Advanced Video Codec
Format profile : High@L4.0
Format settings, CABAC : Yes
Format settings, ReFrames : 1 frame
Codec ID : avc1
Codec ID/Info : Advanced Video Coding
Duration : 4mn 14s
Bit rate : 5 708 Kbps
Maximum bit rate : 11.8 Mbps
Width : 1 920 pixels
Height : 1 080 pixels
Display aspect ratio : 16:9
Frame rate mode : Constant
Frame rate : 23.976 fps
Color space : YUV
Chroma subsampling : 4:2:0
Bit depth : 8 bits
Scan type : Progressive
Bits/(Pixel*Frame) : 0.115
Stream size : 173 MiB (97%)
Tagged date : UTC 2013-04-08 03:09:39
Audio
ID : 2
Format : AAC
Format/Info : Advanced Audio Codec
Format profile : LC
Codec ID : 40
Duration : 4mn 14s
Bit rate mode : Variable
Bit rate : 192 Kbps
Maximum bit rate : 201 Kbps
Channel(s) : 2 channels
Channel positions : Front: L R
Sampling rate : 44.1 KHz
Compression mode : Lossy
Stream size : 5.83 MiB (3%)
Title : IsoMedia File Produced by Google, 5-11-2011
Encoded date : UTC 2013-04-08 03:09:01
Tagged date : UTC 2013-04-08 03:09:39
Shared By Sbyky
Daddy Yankee - Limbo [Music Video] 1080p [Sbyky].mp4 187.766 MB
Gathering some info...

Register and log in Isohunt and see no captcha anymore!

4000 symbols left
Hash 1573d7f64e1c5303f02a81b670c0589f2f54964c

Related torrents for "Daddy Yankee - Limbo [Music Video] 1080p [Sbyky].mp4"

Torrent search:

fullhd