imdb
rating

6.1
Hansel & Gretel: Witch Hunters

Hansel & Gretel: Witch Hunters (2013)

Action, Fantasy, Horror

Full description
quality   bd dvdrip x264 hd dvdr

Hansel and Gretel Witch Hunters 2013 DVDRIP 360P 6CH AC3 $MURDER$

Size 438.463 MB   0 seeders     Added 2013-05-05 08:22:35

Stream torrent
Starting‥ You need BitLord! Get it from 1BitLord.com
To download or stream you need BitLord. Visit them at BitLord.com
							General

Hansel & Gretel: Witch Hunters (2013)

88 min - Action | Fantasy | Horror - 25 January 2013 (USA)

6.4 Your rating: -/10 Ratings: 6.4/10 from 26,571 users Metascore: 21/100 

Reviews: 130 user | 239 critic | 24 from Metacritic.com

In this spin on the fairy tale, 
Hansel & Gretel are now bounty hunters who track and kill witches all over the world. 
As the fabled Blood Moon approaches, 
the siblings encounter a new form of evil that might hold a secret to their past.

Director: Tommy Wirkola
Writer: Tommy Wirkola
Stars: Jeremy Renner, Gemma Arterton, Famke Janssen
================================================================================================================
General
Complete name : Hansel and Gretel Witch Hunters 2013 DVDRIP 360P 6CH AC3 $MURDER$.mkv
Format : Matroska
Format version : Version 1
File size : 404 MiB
Duration : 1h 27mn
Overall bit rate : 643 Kbps
Encoded date : UTC 2013-05-05 00:29:11
Encoder : DocMurder82

: sample == yes

Video 
ID : 1
Format : AVC
Format/Info : Advanced Video Codec
Format profile : High@L1.3
Format settings, CABAC : No
Format settings, ReFrames : 1 frame
Codec ID : V_MPEG4/ISO/AVC
Duration : 1h 27mn
Bit rate : 512 Kbps
Width : 848 pixels
Height : 360 pixels
Display aspect ratio : 2.35:1
Frame rate : 24.000 fps
Color space : YUV
Chroma subsampling : 4:2:0
Bit depth : 8 bits
Scan type : Progressive
Bits/(Pixel*Frame) : 0.070
Stream size : 316 MiB (78%)
Writing library : x264 
Default : Yes
Forced : No

Audio
ID : 2
Format : AC-3
Format/Info : Audio Coding 3
Mode extension : CM (complete main)
Codec ID : A_AC3
Duration : 1h 27mn
Bit rate mode : Constant
Bit rate : 128 Kbps
Channel(s) : 6 channels
Channel positions : Front: L C R, Side: L R, LFE
Sampling rate : 44.1 KHz
Bit depth : 16 bits
Compression mode : Lossy
Stream size : 80.5 MiB (20%)
Default : Yes
Forced : No

screenz
Hansel and Gretel Witch Hunters 2013 DVDRIP 360P 6CH AC3 $MURDER$/Hansel and Gretel Witch Hunters 2013 DVDRIP 360P 6CH AC3 $MURDER$.mkv 423.959 MB
Hansel and Gretel Witch Hunters 2013 DVDRIP 360P 6CH AC3 $MURDER$/sample.ts 11.242 MB
Hansel and Gretel Witch Hunters 2013 DVDRIP 360P 6CH AC3 $MURDER$/vlcsnap-2013-05-05-01h40m35s104.png 486.904 KB
Gathering some info...

Register and log in Isohunt and see no captcha anymore!

4000 symbols left
Hash a02558e708694862e20327d911903268e2f0d7d1

Related torrents for "Hansel and Gretel Witch Hunters 2013 DVDRIP 360P 6CH AC3 $MURDER$"

Torrent search:

dvdrip 2013