imdb
rating

7.1
The Lady

The Lady (2011)

Drama

Full description
quality   fullhd hd dvdrip

Lady Antebellum - Downtown [Music Video] 1080p [Sbyky].mp4

Size 233.219 MB   8 seeders     Added 2013-05-05 08:40:36

Stream torrent
Starting‥ You need BitLord! Get it from BitLord.com
To download or stream you need BitLord. Visit them at BitLord.com
							
General
Complete name : Lady Antebellum - Downtown [Music Video] 1080p [Sbyky].mp4
Format : MPEG-4
Format profile : Base Media / Version 2
Codec ID : mp42
File size : 222 MiB
Duration : 5mn 43s
Overall bit rate mode : Variable
Overall bit rate : 5 431 Kbps
Encoded date : UTC 2013-04-09 00:34:10
Tagged date : UTC 2013-04-09 00:34:10
Video
ID : 1
Format : AVC
Format/Info : Advanced Video Codec
Format profile : High@L4.0
Format settings, CABAC : Yes
Format settings, ReFrames : 1 frame
Codec ID : avc1
Codec ID/Info : Advanced Video Coding
Duration : 5mn 43s
Bit rate : 5 237 Kbps
Maximum bit rate : 11.7 Mbps
Width : 1 920 pixels
Height : 1 080 pixels
Display aspect ratio : 16:9
Frame rate mode : Constant
Frame rate : 23.976 fps
Color space : YUV
Chroma subsampling : 4:2:0
Bit depth : 8 bits
Scan type : Progressive
Bits/(Pixel*Frame) : 0.105
Stream size : 214 MiB (96%)
Tagged date : UTC 2013-04-09 00:35:07
Audio
ID : 2
Format : AAC
Format/Info : Advanced Audio Codec
Format profile : LC
Codec ID : 40
Duration : 5mn 43s
Bit rate mode : Variable
Bit rate : 192 Kbps
Maximum bit rate : 201 Kbps
Channel(s) : 2 channels
Channel positions : Front: L R
Sampling rate : 44.1 KHz
Compression mode : Lossy
Stream size : 7.86 MiB (4%)
Title : IsoMedia File Produced by Google, 5-11-2011
Encoded date : UTC 2013-04-09 00:34:42
Tagged date : UTC 2013-04-09 00:35:07
Shared By Sbyky
Lady Antebellum - Downtown [Music Video] 1080p [Sbyky].mp4 233.219 MB
Gathering some info...

Register and log in Isohunt and see no captcha anymore!

4000 symbols left
Hash b819c142131e754d8bd2fd0958f2059bb9f77080

Related torrents for "Lady Antebellum - Downtown [Music Video] 1080p [Sbyky].mp4"

Torrent search:

fullhd